<?xml version="1.0" standalone="no"?>
<!DOCTYPE svg PUBLIC "-//W3C//DTD SVG 1.1//EN" "http://www.w3.org/Graphics/SVG/1.1/DTD/svg11.dtd" >
<svg xmlns="http://www.w3.org/2000/svg">
<metadata></metadata>
<defs>
<font id="pt_sansbold_italic" horiz-adv-x="1116" >
<font-face units-per-em="2048" ascent="1638" descent="-410" />
<missing-glyph horiz-adv-x="518" />
<glyph unicode="fi" horiz-adv-x="1077" d="M-264 -369l69 187q35 -14 70 -18.5t88 -4.5q66 0 101.5 51.5t52.5 153.5l123 813h-136l43 211h134l12 57q41 195 155.5 284t294.5 89q135 0 234.5 -22.5t155.5 -59.5l-103 -190q-45 29 -115.5 46t-158.5 17q-57 0 -95 -15.5t-63 -45t-40 -70.5t-26 -90h519l-154 -1024 h-252l123 813h-276l-123 -813q-16 -104 -42 -184t-68 -133.5t-104.5 -81t-152.5 -27.5q-74 0 -144.5 11.5t-121.5 45.5z" />
<glyph unicode="fl" horiz-adv-x="1144" d="M-264 -369l69 187q35 -14 70 -18.5t88 -4.5q66 0 101.5 51.5t52.5 153.5l125 813h-136l44 211h133l12 57q41 193 149.5 286t323.5 93q45 0 102.5 -4t112.5 -9t103.5 -11t74.5 -13l-184 -1091q-4 -23 -7 -40.5t-3 -33.5q0 -72 55 -72q23 0 46.5 4.5t57.5 16.5l-8 -182 q-18 -8 -44.5 -17.5t-59.5 -16.5t-69 -11.5t-68 -4.5q-90 0 -137.5 35t-47.5 117q0 39 8 78l172 1028q-23 6 -65.5 11t-83.5 5q-90 0 -129 -62.5t-59 -162.5h147l-41 -211h-147l-125 -813q-14 -104 -41 -184t-69 -133.5t-104.5 -81t-152.5 -27.5q-74 0 -144.5 11.5 t-121.5 45.5z" />
<glyph unicode="&#xd;" horiz-adv-x="518" />
<glyph unicode=" "  horiz-adv-x="518" />
<glyph unicode="&#x09;" horiz-adv-x="518" />
<glyph unicode="&#xa0;" horiz-adv-x="518" />
<glyph unicode="!" horiz-adv-x="579" d="M152 135q0 72 45 114t118 42q76 0 121 -42t45 -114t-45 -115t-121 -43q-74 0 -118.5 43t-44.5 115zM283 426l18 334l143 674h263l-144 -674l-121 -334h-159z" />
<glyph unicode="&#x22;" horiz-adv-x="724" d="M143 991l95 443h221l-162 -443h-154zM430 991l95 443h221l-162 -443h-154z" />
<glyph unicode="#" d="M98 420l45 198h154l51 218h-147l45 198h149l72 295h219l-72 -295h183l71 295h219l-71 -295h147l-51 -198h-143l-51 -218h141l-49 -198h-140l-73 -316h-219l73 316h-182l-74 -316h-219l74 316h-152zM516 618h182l52 218h-183z" />
<glyph unicode="$" d="M121 88l96 199q29 -20 87 -47t136 -41l97 452q-47 31 -92.5 67t-81 82t-57 104.5t-21.5 135.5q0 98 33.5 172t92 125.5t134.5 80t162 38.5l41 182h202l-39 -184q78 -10 137.5 -29.5t102.5 -42.5l-102 -208q-29 16 -78 32.5t-109 26.5l-88 -416q47 -33 94 -69.5t84 -85 t59.5 -108.5t22.5 -138q0 -98 -32.5 -175t-91 -132.5t-139.5 -88t-177 -43.5l-37 -182h-203l39 185q-106 14 -171.5 46.5t-100.5 61.5zM551 1073q0 -59 33.5 -101t87.5 -83l73 352q-98 -4 -146 -51t-48 -117zM557 193q109 8 160 63t51 129q0 66 -37 111t-92 86z" />
<glyph unicode="%" horiz-adv-x="1646" d="M113 1022q0 111 38 192.5t99.5 136t136 81t148.5 26.5q135 0 205.5 -62.5t70.5 -183.5q0 -117 -34.5 -201.5t-94 -140t-136.5 -82t-159 -26.5q-127 0 -200.5 70.5t-73.5 189.5zM164 113l1179 1349l150 -135l-1180 -1356zM338 1034q-2 -45 20.5 -72.5t65.5 -27.5 q68 0 115 70.5t47 181.5q0 100 -88 100q-35 0 -63.5 -20.5t-51 -54t-35 -80t-10.5 -97.5zM860 262q0 111 38 192.5t99.5 136t136 81t148.5 26.5q135 0 205.5 -62.5t70.5 -183.5q0 -117 -34.5 -201.5t-94 -140t-136.5 -82t-159 -26.5q-127 0 -200.5 70.5t-73.5 189.5z M1085 274q-2 -45 20.5 -72.5t65.5 -27.5q68 0 115 70.5t47 181.5q0 100 -88 100q-35 0 -63.5 -20.5t-51 -54t-35 -80t-10.5 -97.5z" />
<glyph unicode="&#x26;" horiz-adv-x="1603" d="M150 332q0 94 37.5 178t100 153.5t141.5 126t163 97.5q-35 68 -44 123t-9 110q0 68 22.5 129.5t71.5 108.5t125 75.5t180 28.5q82 0 134 -20.5t83 -54t42 -75.5t11 -83q0 -104 -83 -199.5t-236 -179.5q45 -111 93 -203t114 -182q53 51 106 128t98 157l162 -103 q-20 -37 -51 -81t-64.5 -89t-67.5 -85t-60 -68q49 -59 107 -111.5t116 -77.5l-178 -196q-31 12 -64 35.5t-64.5 51t-60 58.5t-49.5 59q-88 -68 -203.5 -120t-269.5 -52q-94 0 -169 28t-127 76t-79.5 113.5t-27.5 143.5zM416 381q0 -86 55 -135t164 -49q78 0 152.5 33.5 t119.5 74.5q-76 109 -135 216.5t-98 203.5q-121 -82 -189.5 -165t-68.5 -179zM786 1133q0 -45 7.5 -77t29.5 -81q86 51 133.5 100t47.5 105q0 39 -18.5 61.5t-70.5 22.5q-63 0 -96 -39t-33 -92z" />
<glyph unicode="'" horiz-adv-x="446" d="M186 991l95 443h221l-162 -443h-154z" />
<glyph unicode="(" horiz-adv-x="634" d="M127 178q0 197 47 382t126 350t183.5 304.5t218.5 243.5l132 -110q-96 -106 -179.5 -238.5t-144.5 -282t-97 -310.5t-36 -324q0 -129 18.5 -255t83.5 -274l-157 -110q-59 78 -96.5 158.5t-60 160.5t-30.5 156.5t-8 148.5z" />
<glyph unicode=")" horiz-adv-x="634" d="M-158 -338q92 102 176 236.5t146.5 286t99.5 311t37 313.5q0 170 -24.5 300t-79.5 232l178 115q92 -123 134 -277.5t42 -340.5q0 -197 -46 -383.5t-125 -352t-182.5 -307t-217.5 -246.5z" />
<glyph unicode="*" horiz-adv-x="729" d="M160 1112v152h121l120 -35l-102 90l-57 102l131 76l57 -94l31 -121l31 113l57 100l129 -72l-62 -106l-96 -88l131 33h117v-150h-111l-125 33l103 -96l51 -86l-131 -76l-55 94l-41 131l-27 -119l-59 -100l-133 76l61 100l92 76l-112 -33h-121z" />
<glyph unicode="+" horiz-adv-x="1034" d="M119 578v229h332v346h239v-346h334v-229h-334v-351h-239v351h-332z" />
<glyph unicode="," horiz-adv-x="462" d="M-53 -193q59 23 108.5 74.5t67.5 108.5q-35 2 -65.5 34.5t-30.5 86.5q0 82 52 127t124 45t106.5 -46.5t34.5 -105.5v-4q-2 -100 -41 -175t-93 -127t-112.5 -84t-97.5 -44z" />
<glyph unicode="-" horiz-adv-x="702" d="M115 483l51 213h489l-51 -213h-489z" />
<glyph unicode="." horiz-adv-x="514" d="M68 135q0 72 45 114t118 42q76 0 121 -42t45 -114t-45 -115t-121 -43q-74 0 -118.5 43t-44.5 115z" />
<glyph unicode="/" horiz-adv-x="794" d="M-158 -193l1043 1651l176 -94l-1045 -1655z" />
<glyph unicode="0" d="M113 469q0 213 48 394t134 314.5t203.5 209t257.5 75.5q80 0 150.5 -24.5t123.5 -82t84 -153.5t31 -237q0 -190 -44 -369.5t-127 -318t-203 -222.5t-269 -84q-100 0 -174 39t-121 105.5t-70.5 158t-23.5 195.5zM367 471q0 -84 14 -137t37.5 -84t56.5 -42t70 -11 q72 0 134 67.5t109.5 176t75 244.5t27.5 276q0 63 -7 114t-26.5 87t-52.5 55.5t-84 19.5q-68 0 -131.5 -63.5t-113.5 -169t-79.5 -244.5t-29.5 -289z" />
<glyph unicode="1" d="M119 0l47 225h270l174 809l58 140l-119 -121l-199 -127l-80 157l527 375h143l-262 -1233h264l-47 -225h-776z" />
<glyph unicode="2" d="M74 0l28 137q57 53 135 126t162 156t165 172t144.5 175t103.5 166t40 145q0 68 -35 111t-133 43q-63 0 -130 -30t-132 -77l-62 193q98 72 197.5 108.5t230.5 36.5q152 0 235 -87t83 -228q0 -115 -53.5 -232.5t-135 -230.5t-180 -213t-186.5 -180l-121 -84v-10l143 28h367 l-47 -225h-819z" />
<glyph unicode="3" d="M84 35l117 227q41 -27 100 -43t137 -16q80 0 138.5 22.5t97.5 59.5t57.5 85t18.5 97q0 98 -52.5 143t-189.5 45h-143l30 142l301 338l131 92l-155 -19h-326l49 226h744l-31 -146l-350 -389l-99 -55v-10l82 12q41 -4 87 -24.5t85 -60.5t65 -102.5t26 -152.5 q0 -117 -38 -215t-114 -169t-188.5 -111t-260.5 -40q-88 0 -178 16.5t-141 47.5z" />
<glyph unicode="4" d="M57 399l31 152l805 893h209l-176 -834h215l-45 -211h-215l-84 -399h-236l84 399h-588zM336 596l127 14h227l68 316l53 172h-6l-98 -148l-258 -276z" />
<glyph unicode="5" d="M74 33l114 217q41 -20 93.5 -33.5t130.5 -13.5q86 0 147.5 24.5t101 65.5t59 94t19.5 113q0 102 -62.5 145t-207.5 43l-158 -6l158 752h670l-52 -250h-450l-59 -283l75 8q82 0 144.5 -26.5t105.5 -73.5t65.5 -112.5t22.5 -141.5q0 -283 -159.5 -433.5t-458.5 -150.5 q-41 0 -84 5.5t-83 13.5t-74 19t-58 24z" />
<glyph unicode="6" d="M127 432q0 209 78 390.5t206 317.5t291.5 220t337.5 102l15 -211q-102 -16 -200.5 -58t-183.5 -106.5t-150.5 -146.5t-100.5 -176q55 59 136 90t167 31q158 0 246 -99.5t88 -263.5q0 -111 -33 -211t-99.5 -175t-167 -120t-233.5 -45q-66 0 -136.5 23.5t-128.5 78 t-95 142.5t-37 217zM367 449q0 -111 46 -181.5t142 -70.5q117 0 184.5 77.5t67.5 200.5q0 82 -42 133t-140 51q-78 0 -145.5 -34.5t-102.5 -87.5q-4 -20 -7 -46t-3 -42z" />
<glyph unicode="7" d="M127 0l674 1104l104 100l-119 -20h-481l51 250h881l-16 -78l-830 -1356h-264z" />
<glyph unicode="8" d="M111 313q0 78 26.5 144.5t71.5 121t104.5 95.5t124.5 65q-29 27 -54.5 54.5t-45 62.5t-30.5 81t-11 107q0 100 38 179.5t103.5 131.5t151.5 79.5t182 27.5q172 0 262 -89t90 -228q0 -72 -23.5 -130.5t-63.5 -107.5t-92 -89t-109 -70q92 -72 132 -153t40 -175 q0 -104 -38 -187t-105.5 -141.5t-162 -89.5t-206.5 -31q-80 0 -151 22.5t-123 65.5t-81.5 106.5t-29.5 147.5zM350 362q0 -72 43 -118.5t142 -46.5q45 0 87 12t74.5 35.5t51 59.5t18.5 85q0 47 -15.5 84t-41 66.5t-60.5 55.5t-71 48q-104 -53 -166 -123.5t-62 -157.5z M539 1047q0 -72 45 -122.5t114 -90.5q37 27 70 57.5t58.5 63t41 67.5t15.5 68q0 74 -37 110.5t-105 36.5q-86 0 -144 -49t-58 -141z" />
<glyph unicode="9" d="M203 934q0 123 41 221t113.5 166t170 104.5t211.5 36.5q86 0 160 -26.5t128 -83t86 -141.5t32 -201q0 -164 -42 -302.5t-112.5 -251t-164 -200.5t-196 -149.5t-208 -95.5t-199.5 -40l-12 209q113 20 212 64.5t179 105t138.5 135t90.5 154.5q-59 -47 -128.5 -70.5 t-167.5 -23.5q-57 0 -117 21.5t-107 67.5t-77.5 121t-30.5 179zM453 973q0 -59 15 -98t42 -64t58.5 -35t66.5 -10q78 0 145.5 24.5t106.5 65.5q6 23 11 64t5 59q0 117 -46 189.5t-150 72.5q-49 0 -94.5 -15.5t-81 -48t-57 -83.5t-21.5 -121z" />
<glyph unicode=":" horiz-adv-x="643" d="M185 135q0 72 45 114t118 42q76 0 121 -42t45 -114t-45 -115t-121 -43q-74 0 -118.5 43t-44.5 115zM338 876q0 72 45 114t118 42q76 0 121 -42t45 -114t-45 -115t-121 -43q-74 0 -118.5 43t-44.5 115z" />
<glyph unicode=";" horiz-adv-x="628" d="M107 -193q59 23 108.5 74.5t67.5 108.5q-35 2 -65.5 34.5t-30.5 86.5q0 82 52 127t124 45t106.5 -46.5t34.5 -105.5v-4q-2 -100 -41 -175t-93 -127t-112.5 -84t-97.5 -44zM324 876q0 72 45 114t118 42q76 0 121 -42t45 -114t-45 -115t-121 -43q-74 0 -118.5 43t-44.5 115 z" />
<glyph unicode="&#x3c;" horiz-adv-x="1034" d="M104 584v143l791 473l117 -184l-459 -285l-186 -72l184 -63l471 -281l-117 -184z" />
<glyph unicode="=" horiz-adv-x="1034" d="M119 383v229h905v-229h-905zM119 775v229h905v-229h-905z" />
<glyph unicode="&#x3e;" horiz-adv-x="1034" d="M123 1018l115 182l802 -452v-144l-792 -473l-115 186l457 283l186 74l-184 61z" />
<glyph unicode="?" horiz-adv-x="880" d="M168 135q0 72 45 114t119 42q76 0 121 -42t45 -114t-45 -115t-121 -43q-74 0 -119 43t-45 115zM233 1339q84 51 182.5 87t239.5 36q172 0 252 -72.5t80 -195.5q0 -109 -32.5 -183.5t-84 -131t-113 -100.5t-117.5 -93t-101 -110.5t-62 -149.5h-217q12 111 50 189.5 t88.5 137t106.5 102.5t102 85t77 84t31 100q0 55 -32 86t-114 31q-63 0 -139 -27.5t-133 -66.5z" />
<glyph unicode="@" horiz-adv-x="2168" d="M205 483q0 223 80 403.5t215 307.5t313 195.5t377 68.5q188 0 350 -54t280.5 -155.5t186.5 -248t68 -332.5q0 -131 -47.5 -246t-127 -199t-187 -133t-230.5 -49q-51 0 -95.5 11t-75 38t-45 70t-7.5 106h-9q-31 -43 -65.5 -84t-77.5 -72.5t-94 -50t-113 -18.5 q-51 0 -95 21.5t-77 60.5t-52.5 94t-19.5 123q0 127 41 247t111 212t163 148.5t197 56.5q72 0 121 -21.5t92 -56.5l64 65h143l-100 -555q-4 -25 -6 -46t-2 -38q0 -98 75 -98q53 0 105.5 24.5t93.5 76t65.5 129t24.5 184.5q0 154 -51 263t-140 180t-210 103.5t-258 32.5 q-160 0 -298 -57t-239.5 -158.5t-159 -240t-57.5 -299.5q0 -160 48 -287t141.5 -217t229.5 -138.5t312 -48.5q59 0 135 15.5t138 44.5l63 -197q-86 -41 -172 -57.5t-199 -16.5q-201 0 -369.5 57.5t-291.5 170t-192.5 279.5t-69.5 386zM905 408q0 -68 29 -112t96 -44 q29 0 61.5 17.5t63.5 47t58.5 66.5t50.5 78l53 282q-29 23 -57.5 36.5t-69.5 13.5q-61 0 -113.5 -36t-90.5 -91.5t-59.5 -124t-21.5 -133.5z" />
<glyph unicode="A" horiz-adv-x="1191" d="M-78 0l797 1444h196l187 -1444h-268l-41 317h-418l-170 -317h-283zM492 543h290l-32 319l2 225h-11l-82 -227z" />
<glyph unicode="B" horiz-adv-x="1163" d="M41 10l299 1413q39 6 88 12.5t104.5 10.5t114 6t113.5 2q94 0 175 -19.5t139.5 -60.5t92 -105.5t33.5 -154.5q0 -68 -22.5 -130t-64.5 -111.5t-100.5 -82t-131.5 -42.5v-11q39 -8 77.5 -29.5t69.5 -55.5t49.5 -80t18.5 -103q0 -131 -51.5 -224t-137.5 -151.5t-200.5 -86 t-241.5 -27.5h-85t-111.5 3t-119 9t-108.5 18zM342 223q8 -4 29.5 -6t47 -3t52.5 -2t45 -1q51 0 105.5 12.5t98.5 41t72.5 73.5t28.5 111q0 51 -22.5 83.5t-59.5 52t-85 26.5t-99 7h-131zM471 831h88q29 0 68 1.5t65 5.5q37 6 79 20t76 41t56.5 68t22.5 102q0 88 -58.5 121 t-148.5 33q-53 0 -98.5 -2t-69.5 -7z" />
<glyph unicode="C" horiz-adv-x="1099" d="M119 557q0 242 67.5 413t178 280.5t253 160.5t291.5 51q117 0 200 -17.5t130 -39.5l-104 -238q-41 23 -98.5 34t-145.5 11q-104 0 -194.5 -43t-156 -122.5t-103.5 -194.5t-38 -260q0 -174 87 -272.5t233 -98.5q92 0 152.5 19.5t113.5 48.5l4 -230q-137 -88 -336 -88 q-135 0 -235.5 45t-167 125t-99 186.5t-32.5 229.5z" />
<glyph unicode="D" horiz-adv-x="1269" d="M41 -2l303 1436q43 6 94 10t95.5 6t76.5 2q18 0 52 1t75 1q125 0 227.5 -31.5t175 -97t112.5 -168t40 -244.5q0 -90 -15 -193.5t-52 -207.5t-101.5 -200.5t-162 -170t-233.5 -119t-316 -45.5q-31 0 -62 1.5t-43 1.5q-41 2 -91 5l-100 6t-75 7zM356 233q8 -2 25.5 -3 t38 -2t39 -1h28.5q143 0 243.5 64.5t163 162t90.5 211t28 212.5q0 164 -69 245.5t-228 81.5q-41 0 -86 -2t-70 -6z" />
<glyph unicode="E" horiz-adv-x="1030" d="M41 0l303 1434h266h541l-53 -250h-541l-72 -334h494l-55 -250h-490l-76 -350h551l-51 -250h-551h-266z" />
<glyph unicode="F" horiz-adv-x="1001" d="M41 0l303 1434h266h541l-53 -250h-541l-76 -355h498l-51 -249h-498l-123 -580h-266z" />
<glyph unicode="G" horiz-adv-x="1198" d="M119 553q0 236 64.5 408t175 283.5t258 164.5t311.5 53q117 0 208 -19.5t138 -39.5l-107 -236q-43 20 -107.5 32.5t-156.5 12.5q-109 0 -201 -41t-159.5 -120.5t-105.5 -197.5t-38 -269q0 -170 80 -266.5t215 -96.5q100 0 176 51l58 273l-209 33l37 170h430l-135 -639 q-92 -72 -193.5 -105t-218.5 -33q-113 0 -208 39t-164.5 113t-108.5 182.5t-39 247.5z" />
<glyph unicode="H" horiz-adv-x="1277" d="M41 0l303 1434h266l-123 -584h498l123 584h266l-303 -1434h-266l127 600h-498l-127 -600h-266z" />
<glyph unicode="I" horiz-adv-x="569" d="M72 0l303 1434h264l-303 -1434h-264z" />
<glyph unicode="J" horiz-adv-x="663" d="M-104 23l102 229q47 -27 111 -27q43 0 71.5 17.5t48 48.5t31.5 73t25 93l204 977h267l-224 -1049q-18 -86 -46.5 -160.5t-76 -130t-118 -87.5t-170.5 -32q-57 0 -120.5 12.5t-104.5 35.5z" />
<glyph unicode="K" horiz-adv-x="1214" d="M41 0l303 1434h266l-135 -635l64 22l485 613h319l-516 -609l-122 -71l90 -80l311 -674h-297l-277 612h-96l-129 -612h-266z" />
<glyph unicode="L" horiz-adv-x="1013" d="M41 0l303 1434h266l-252 -1184h596l-51 -250h-596h-266z" />
<glyph unicode="M" horiz-adv-x="1570" d="M41 0l303 1434h236l215 -656l26 -164h10l95 168l483 652h256l-303 -1434h-264l157 743l91 283h-13l-135 -231l-403 -531h-84l-193 537l-37 225h-10l-20 -281l-158 -745h-252z" />
<glyph unicode="N" horiz-adv-x="1292" d="M41 0l307 1444h184l353 -766l63 -223h13l14 223l162 756h252l-308 -1444h-184l-350 760l-68 229h-10l-18 -229l-158 -750h-252z" />
<glyph unicode="O" horiz-adv-x="1318" d="M119 537q0 190 52 359t148.5 295t232.5 198.5t304 72.5q111 0 200 -32.5t151.5 -101t97 -173t34.5 -248.5q0 -193 -52 -362.5t-147.5 -297.5t-227.5 -202t-291 -74q-242 0 -371 142.5t-131 423.5zM399 545q0 -147 56.5 -235.5t185.5 -88.5q94 0 171 56.5t132 151.5 t85 218t30 256q0 162 -63.5 235.5t-174.5 73.5q-92 0 -169 -53t-133 -144t-88 -213t-32 -257z" />
<glyph unicode="P" horiz-adv-x="1126" d="M41 0l301 1419q86 16 183.5 25.5t195.5 9.5q104 0 193.5 -23.5t156 -72.5t103 -126t36.5 -183q0 -160 -55 -267.5t-146 -174t-208 -94.5t-238 -28h-31.5t-45 1t-45 3.5t-31.5 4.5l-103 -494h-266zM463 735q8 -2 22.5 -4t32 -3t32.5 -1h23q70 0 134.5 15.5t113.5 49t79 89 t30 135.5q0 59 -19.5 98t-52.5 60.5t-77 29.5t-93 8q-37 0 -70.5 -3t-56.5 -7z" />
<glyph unicode="Q" horiz-adv-x="1318" d="M119 537q0 190 52 359t148.5 295t232.5 198.5t304 72.5q111 0 200 -32.5t151.5 -101t97 -173t34.5 -248.5q0 -193 -52 -362.5t-147.5 -297.5t-227.5 -202t-291 -74q-242 0 -371 142.5t-131 423.5zM328 -317l51 241q57 12 115 13q82 0 158.5 -20.5t155.5 -44.5t163 -44.5 t180 -20.5q43 0 89 5.5t95 17.5l-51 -244q-94 -26 -187 -26h-7q-98 0 -188.5 21.5t-173.5 46t-158.5 46t-149.5 21.5q-47 0 -92 -12zM399 545q0 -147 56.5 -235.5t185.5 -88.5q94 0 171 56.5t132 151.5t85 218t30 256q0 162 -63.5 235.5t-174.5 73.5q-92 0 -169 -53 t-133 -144t-88 -213t-32 -257z" />
<glyph unicode="R" horiz-adv-x="1196" d="M41 0l301 1419q98 18 198.5 26.5t180.5 8.5q94 0 178 -22.5t145.5 -68.5t97.5 -119t36 -171q0 -113 -34 -195.5t-89.5 -139t-126 -88.5t-144.5 -42l80 -63l199 -545h-295l-197 561l-141 27l-123 -588h-266zM471 778h109q59 0 116.5 11.5t101.5 41t71.5 78.5t27.5 125 q0 70 -47 120t-152 50q-41 0 -76.5 -3t-60.5 -7z" />
<glyph unicode="S" horiz-adv-x="1044" d="M-4 57l137 238q20 -12 53 -26.5t75 -27t91 -20.5t99 -8q57 0 108 9t89 30.5t59.5 54.5t21.5 82q0 55 -37 94t-93 74t-120.5 73t-121 89t-93.5 123.5t-37 177.5q0 119 42 203t114 137t168 77.5t207 24.5q59 0 118.5 -6t112.5 -17.5t98.5 -26.5t75.5 -34l-135 -233 q-39 25 -114.5 50.5t-168.5 25.5q-47 0 -92 -9.5t-79.5 -30t-55 -53t-20.5 -77.5q0 -59 36.5 -100.5t93 -77t121 -72.5t121 -86t93 -118t36.5 -169q0 -121 -42 -208t-118.5 -142t-184 -81t-238.5 -26q-72 0 -136.5 8.5t-120 20.5t-97.5 27.5t-66 29.5z" />
<glyph unicode="T" horiz-adv-x="1120" d="M197 1184l53 250h1059l-52 -250h-397l-252 -1184h-264l250 1184h-397z" />
<glyph unicode="U" horiz-adv-x="1232" d="M129 356q0 41 5 84t16 90l192 904h264l-188 -902q-16 -78 -17 -126q0 -98 51.5 -139.5t149.5 -41.5q123 0 190.5 72t102.5 231l192 906h250l-194 -926q-31 -147 -80 -248.5t-119 -165t-164 -91.5t-217 -28q-119 0 -200.5 28t-134 79t-76 120.5t-23.5 153.5z" />
<glyph unicode="V" horiz-adv-x="1185" d="M207 1434h291l92 -840l-15 -244h9l90 244l442 840h299l-809 -1444h-192z" />
<glyph unicode="W" horiz-adv-x="1691" d="M223 1434h281l6 -799l-29 -254h11l79 258l406 795h180l60 -799l-27 -254h10l82 258l336 795h287l-682 -1444h-187l-75 796l16 220h-12l-78 -222l-408 -794h-186z" />
<glyph unicode="X" horiz-adv-x="1245" d="M-49 0l573 731l-231 703h289l123 -414l20 -146l76 146l305 414h319l-538 -693l256 -741h-285l-147 442l-25 152l-82 -152l-330 -442h-323z" />
<glyph unicode="Y" horiz-adv-x="1165" d="M217 1434h295l133 -539l-4 -152h8l64 156l358 535h305l-637 -899l-112 -535h-265l111 532z" />
<glyph unicode="Z" horiz-adv-x="1060" d="M-23 0l54 250l737 852l119 82h-658l52 250h944l-51 -250l-742 -858l-115 -76h658l-53 -250h-945z" />
<glyph unicode="[" horiz-adv-x="643" d="M4 -471l402 1905h456l-45 -224h-215l-309 -1456h215l-49 -225h-455z" />
<glyph unicode="\" horiz-adv-x="868" d="M74 1368l211 88l682 -1651l-207 -92z" />
<glyph unicode="]" horiz-adv-x="643" d="M-160 -471l49 225h215l308 1456h-215l45 224h458l-403 -1905h-457z" />
<glyph unicode="^" horiz-adv-x="1034" d="M143 846l402 598h143l379 -598h-268l-146 250l-45 143l-51 -145l-158 -248h-256z" />
<glyph unicode="_" horiz-adv-x="909" d="M-94 -240h909v-219h-909v219z" />
<glyph unicode="`" horiz-adv-x="561" d="M297 1413l14 62h264l50 -316h-142z" />
<glyph unicode="a" horiz-adv-x="1030" d="M68 295q0 150 37.5 287t117.5 241.5t202 167t290 62.5q72 0 156.5 -13.5t164.5 -35.5l-127 -594q-16 -78 -23 -158t-7 -152q0 -29 1 -54.5t3 -47.5h-187l-28 176h-9q-23 -37 -58.5 -72.5t-78.5 -65.5t-91 -47.5t-99 -17.5q-135 0 -199.5 88t-64.5 236zM328 344 q0 -66 21.5 -114t78.5 -48q37 0 69.5 15.5t60.5 40t49.5 53t37.5 53.5l103 477q-23 10 -52.5 15.5t-58.5 5.5q-74 0 -131 -44t-97 -115t-60.5 -160t-20.5 -179z" />
<glyph unicode="b" horiz-adv-x="1048" d="M45 57l291 1377h252l-127 -590h8q27 37 61.5 72.5t76.5 65.5t91.5 48.5t108.5 18.5q111 0 166 -78t55 -207q0 -195 -54 -342.5t-142.5 -246.5t-199 -149.5t-222.5 -50.5q-125 0 -220.5 24t-144.5 58zM328 215q23 -16 55.5 -22.5t71.5 -6.5q51 0 106 34t101.5 99.5 t76 160.5t29.5 216q0 141 -82 142q-41 0 -81 -22.5t-76.5 -56.5t-66.5 -73t-48 -74z" />
<glyph unicode="c" horiz-adv-x="843" d="M70 324q0 172 49 307t130 228t184.5 143.5t211.5 50.5q96 0 152.5 -18.5t101.5 -41.5l-94 -200q-39 23 -81 30.5t-91 7.5q-55 0 -107.5 -35.5t-94.5 -94t-66.5 -136.5t-24.5 -159q0 -104 45 -158.5t119 -54.5q61 0 113.5 19t93.5 44l47 -172q-66 -49 -153 -81t-173 -32 q-98 0 -166.5 29t-111.5 78t-63.5 112.5t-20.5 133.5z" />
<glyph unicode="d" horiz-adv-x="1038" d="M76 309q0 143 39 276.5t109.5 237t172 165t224.5 61.5q59 0 98 -7.5t74 -23.5l88 416h252l-228 -1074q-18 -86 -26.5 -159.5t-8.5 -139.5v-31.5t2 -31.5h-172l-28 176h-8q-23 -37 -59 -72.5t-79 -65.5t-91 -47.5t-95 -17.5q-127 0 -195.5 90.5t-68.5 247.5zM336 328 q0 -59 26.5 -102.5t75.5 -43.5q31 0 62.5 15.5t59.5 40t51.5 53t37.5 53.5l99 463q-25 16 -57 23.5t-85 7.5q-61 0 -111.5 -42t-85 -113t-54 -163t-19.5 -192z" />
<glyph unicode="e" horiz-adv-x="954" d="M70 340q0 164 51 296t134 224t187.5 142.5t208.5 50.5q84 0 144.5 -21.5t99.5 -59.5t57.5 -87t18.5 -105q0 -84 -43 -147.5t-120 -105.5t-185.5 -63.5t-237.5 -21.5q-16 0 -30.5 1t-30.5 1q-4 -25 -6.5 -44t-2.5 -35q0 -92 48.5 -137.5t136.5 -45.5q90 0 161.5 27 t108.5 53l53 -164q-63 -53 -163.5 -90t-233.5 -37q-166 0 -261 97.5t-95 271.5zM360 604q57 0 122 4t120 19.5t92 45t37 81.5q0 31 -22.5 62.5t-94.5 31.5q-90 0 -156.5 -70t-97.5 -174z" />
<glyph unicode="f" horiz-adv-x="602" d="M-264 -369l69 187q35 -14 70 -18.5t88 -4.5q66 0 101.5 52.5t54.5 168.5l129 797h-144l46 211h131l26 137q14 76 37 132.5t60.5 94t92 56t134.5 18.5q33 0 75 -3t82.5 -10t79.5 -17.5t70 -24.5l-59 -186q-47 18 -96.5 24t-96.5 6q-66 0 -95.5 -38.5t-41.5 -120.5l-12 -68 h204l-41 -211h-196l-152 -883q-12 -76 -34.5 -140t-62.5 -112.5t-101.5 -76t-151.5 -27.5q-74 0 -144.5 11.5t-121.5 45.5z" />
<glyph unicode="g" horiz-adv-x="1034" d="M-20 -342l94 186q18 -8 42.5 -19t56.5 -22.5t74 -18.5t97 -7q102 0 162.5 63.5t87.5 173.5l39 160h-8q-47 -74 -128 -132t-184 -58q-111 0 -179 83t-68 222q0 158 45 296t125.5 241.5t191.5 163t244 59.5q125 0 218 -21.5t150 -48.5l-206 -979q-27 -121 -72 -204 t-107.5 -134t-143.5 -73.5t-179 -22.5q-72 0 -128.5 10t-99.5 24.5t-74.5 30t-49.5 27.5zM326 338q0 -66 27.5 -104.5t72.5 -38.5q35 0 72 21.5t70.5 54t60 72.5t43.5 75l88 399q-23 12 -57.5 16.5t-69.5 4.5q-66 0 -122 -39t-97 -106.5t-64.5 -159t-23.5 -195.5z" />
<glyph unicode="h" horiz-adv-x="1081" d="M37 0l303 1434h252l-129 -590h8q27 33 64.5 69.5t84 67.5t100.5 51.5t118 20.5q98 0 152 -49.5t54 -174.5q0 -76 -24 -192l-135 -637h-252l123 582q20 90 20 149q0 53 -20.5 76.5t-63.5 23.5q-39 0 -82 -24.5t-82 -61t-70.5 -78.5t-47.5 -77l-121 -590h-252z" />
<glyph unicode="i" horiz-adv-x="524" d="M55 0l217 1024h252l-217 -1024h-252zM311 1315q0 68 44 104.5t112 36.5q66 0 112 -37t46 -104q0 -66 -46.5 -103.5t-111.5 -37.5q-68 0 -112 37.5t-44 103.5z" />
<glyph unicode="j" horiz-adv-x="499" d="M-229 -408l49 218q12 -1 23 -1q37 0 65 10q37 13 62.5 41.5t43 72.5t29.5 100l209 991h254l-227 -1067q-39 -184 -131.5 -281.5t-249.5 -97.5q-63 0 -127 14zM289 1315q0 68 44 104.5t112 36.5q66 0 112 -37t46 -104q0 -66 -46.5 -103.5t-111.5 -37.5q-68 0 -112 37.5 t-44 103.5z" />
<glyph unicode="k" horiz-adv-x="952" d="M37 0l303 1434h252l-180 -846l75 26l289 410h281l-305 -412l-123 -77l92 -78l156 -457h-271l-147 424h-82l-88 -424h-252z" />
<glyph unicode="l" horiz-adv-x="557" d="M68 135q0 47 12 109l252 1190h252l-240 -1131q-6 -28 -6 -50q0 -23 7 -38q13 -29 44 -29q57 0 109 23l-6 -182q-37 -23 -107 -37.5t-137 -14.5q-88 0 -134 34t-46 126z" />
<glyph unicode="m" horiz-adv-x="1570" d="M37 0l217 1024h197l-13 -180h8q31 33 67 69.5t81 67.5t100.5 51.5t120.5 20.5q82 1 124 -59q38 -54 38 -141v-17q31 39 70.5 77.5t86 69.5t98.5 50.5t107 19.5q94 0 144.5 -44t50.5 -165q0 -88 -31 -230l-129 -614h-252l121 575q10 47 16.5 88.5t6.5 71.5 q0 47 -17.5 71.5t-58.5 24.5q-33 0 -66.5 -19t-64.5 -49t-56.5 -64.5t-39.5 -65.5l-132 -633h-251l116 557q12 57 19.5 101t7.5 79q0 94 -72 94q-35 0 -69.5 -18t-64.5 -47t-55.5 -62.5t-41.5 -64.5l-131 -639h-252z" />
<glyph unicode="n" horiz-adv-x="1067" d="M37 0l217 1024h190l-10 -180h8q27 33 63 69.5t83 67.5t105.5 51.5t131.5 20.5q92 0 147.5 -50.5t55.5 -166.5q0 -31 -3 -66t-13 -76l-148 -694h-252l136 635q12 57 12 100q0 45 -18.5 70.5t-67.5 25.5q-37 0 -74 -18t-69.5 -49t-61.5 -69t-49 -77l-131 -618h-252z" />
<glyph unicode="o" horiz-adv-x="1015" d="M70 332q0 162 46 295t122.5 227t178 146.5t212.5 52.5q98 0 165.5 -31t109.5 -82t60.5 -116.5t18.5 -135.5q0 -160 -45 -292t-121 -226t-176 -146.5t-211 -52.5q-96 0 -163.5 32t-111.5 83t-64.5 115.5t-20.5 130.5zM330 367q0 -184 133 -185q49 0 96 43t84 113t58.5 158 t21.5 176q0 82 -27.5 126t-103.5 44q-49 0 -96 -41t-84 -107.5t-59.5 -152.5t-22.5 -174z" />
<glyph unicode="p" horiz-adv-x="1036" d="M-53 -410l303 1434h186l-10 -180h8q29 39 66 76.5t82 66.5t96 47.5t110 18.5q104 0 168 -72t64 -225q0 -174 -46 -318.5t-123 -248t-180.5 -161t-215.5 -57.5q-53 0 -100.5 10.5t-69.5 26.5l-88 -418h-250zM328 217q51 -35 114 -35t121 43t102 115t69.5 167t25.5 200 q0 59 -27.5 97t-75.5 38q-37 0 -71.5 -18.5t-65.5 -46t-55.5 -62.5t-42.5 -68z" />
<glyph unicode="q" horiz-adv-x="1026" d="M59 285q0 156 50.5 295t137.5 243.5t202.5 165t244.5 60.5q98 0 191.5 -21.5t144.5 -50.5l-301 -1387h-246l125 570h-8q-20 -35 -50 -68t-68 -60.5t-83 -44t-96 -16.5q-68 0 -114 26t-74.5 70t-42 100t-13.5 118zM319 317q0 -63 24 -99t65 -36q39 0 77.5 23.5t72.5 59.5 t61.5 78t44.5 79l81 395q-29 12 -59.5 16.5t-60.5 4.5q-61 0 -117.5 -44t-97.5 -117t-66 -167t-25 -193z" />
<glyph unicode="r" horiz-adv-x="702" d="M37 0l217 1024h186l2 -180h9q45 82 109.5 139t162.5 57q43 0 102 -16l-63 -219q-20 6 -38.5 10t-39.5 4q-84 0 -154.5 -54t-107.5 -126l-133 -639h-252z" />
<glyph unicode="s" horiz-adv-x="811" d="M-2 39l80 201q41 -23 105.5 -40.5t135.5 -17.5q72 0 110 28t40 85q0 41 -24.5 70.5t-62.5 56.5t-81 54.5t-81 63t-62.5 85t-24.5 118.5q0 68 26.5 125.5t75 98.5t117 63.5t154.5 22.5q119 0 196.5 -17.5t122.5 -44.5l-69 -192q-41 18 -99.5 30.5t-121.5 12.5 q-66 0 -104 -22.5t-38 -71.5q0 -33 24.5 -58.5t62.5 -52.5t81 -54.5t81 -66.5t62.5 -89t24.5 -120q0 -170 -110.5 -253t-294.5 -83q-104 0 -191.5 19.5t-134.5 48.5z" />
<glyph unicode="t" horiz-adv-x="655" d="M82 813l49 211h133l41 193l268 75l-57 -268h240l-47 -211h-238l-100 -463q-12 -55 -13 -90q0 -45 20.5 -61.5t61.5 -16.5q39 0 71 8.5t67 26.5v-188q-23 -12 -54.5 -23.5t-68.5 -18.5t-76 -11.5t-72 -4.5q-104 0 -160.5 48.5t-56.5 146.5q0 20 3 42.5t7 47.5l119 557 h-137z" />
<glyph unicode="u" horiz-adv-x="1048" d="M80 197q0 76 20 165l142 662h252l-134 -633q-12 -61 -12 -102t16.5 -63.5t57.5 -22.5q35 0 70.5 17.5t68.5 45t60.5 61t46.5 66.5l131 631h252l-129 -614q-10 -41 -17.5 -96.5t-13.5 -114t-8 -111.5q-1 -26 -1 -48t1 -40h-203l-10 184h-8q-29 -39 -67 -76.5t-84 -68.5 t-100.5 -49.5t-115.5 -18.5q-96 0 -155.5 48.5t-59.5 177.5z" />
<glyph unicode="v" horiz-adv-x="917" d="M82 1024h278l68 -537l4 -157h6l62 162l280 532h285l-627 -1034h-155z" />
<glyph unicode="w" horiz-adv-x="1388" d="M94 1024h258l33 -514l-12 -182h10l70 184l270 512h188l66 -524l-2 -170h10l62 172l237 522h246l-522 -1034h-187l-71 573v129h-9l-53 -131l-307 -571h-193z" />
<glyph unicode="x" horiz-adv-x="1015" d="M-84 0l424 524l-184 500h284l78 -219l27 -143l90 143l178 219h293l-399 -492l204 -532h-278l-98 246l-31 151l-92 -151l-203 -246h-293z" />
<glyph unicode="y" horiz-adv-x="925" d="M-35 -389l68 201q12 -6 25.5 -8.5t25.5 -2.5q49 0 100.5 47.5t102.5 151.5l-193 1024h289l59 -575l2 -160h13l55 162l279 573h268l-492 -920q-61 -115 -115.5 -211t-109.5 -165.5t-114.5 -108.5t-127.5 -39q-90 0 -135 31z" />
<glyph unicode="z" horiz-adv-x="890" d="M-27 0l45 221l461 490l146 92h-484l49 221h762l-47 -221l-471 -498l-131 -84h479l-47 -221h-762z" />
<glyph unicode="{" horiz-adv-x="729" d="M133 379l45 205q74 0 123 42t68 132l90 428q23 111 86 180.5t174 69.5h233l-47 -226h-98q-53 0 -83 -28.5t-44 -94.5l-84 -399q-18 -90 -69.5 -136t-106.5 -56l-4 -21q51 -8 80.5 -61.5t11.5 -139.5l-84 -397q-14 -66 4 -94.5t74 -28.5h96l-49 -225h-234 q-102 0 -141 64.5t-12 183.5l88 420q23 104 -9 143t-108 39z" />
<glyph unicode="|" horiz-adv-x="475" d="M193 -266v1700h217v-1700h-217z" />
<glyph unicode="}" horiz-adv-x="729" d="M-156 -471l50 225h98q51 0 79.5 28t43.5 95l86 399q18 90 68 136.5t108 56.5l6 20q-53 8 -84 61.5t-12 139.5l84 397q14 63 -3.5 93t-72.5 30h-94l45 226h231q102 0 142 -64.5t16 -183.5l-90 -420q-23 -104 10 -143t109 -39l-43 -205q-156 0 -193 -174l-92 -428 q-23 -111 -89.5 -180.5t-176.5 -69.5h-226z" />
<glyph unicode="~" horiz-adv-x="1034" d="M92 774q96 78 173 107.5t143 29.5q59 0 110 -17t98.5 -36.5t93.5 -37t93 -17.5q37 0 76 12t82 47l96 -211q-74 -55 -135.5 -77.5t-114.5 -22.5q-57 0 -106.5 18.5t-95.5 41t-93 41t-100 18.5q-49 0 -105.5 -21.5t-124.5 -79.5z" />
<glyph unicode="&#xa1;" horiz-adv-x="571" d="M-20 -410l141 674l121 332h159l-18 -332l-143 -674h-260zM205 891q0 72 45 114t119 42q76 0 121 -42t45 -114t-45.5 -115t-120.5 -43q-74 0 -119 43t-45 115z" />
<glyph unicode="&#xa2;" d="M190 324q0 154 39 277.5t105.5 215.5t155 149.5t184.5 75.5l39 187h235l-41 -189q94 -18 148 -47l-92 -200q-23 12 -52.5 20t-62.5 12l-133 -624q45 10 85 24.5t66 30.5l49 -172q-43 -35 -105 -60.5t-128 -37.5l-39 -191h-235l38 187q-68 14 -116.5 46.5t-79.5 79 t-45.5 101.5t-14.5 115zM438 406q0 -86 29 -133.5t74 -65.5l129 608q-45 -18 -87 -55t-74 -90.5t-51.5 -120t-19.5 -143.5z" />
<glyph unicode="&#xa3;" d="M61 0l50 223h4q61 2 117.5 29t99.5 73t68.5 107.5t25.5 132.5v20.5t-2 20.5h-240l47 211h144q-10 41 -18.5 89t-8.5 114q0 115 44 199t118 138t168 79.5t194 25.5q92 0 175 -19.5t131 -51.5l-86 -199q-35 18 -95.5 33.5t-142.5 15.5q-49 0 -95 -17.5t-80 -50t-54.5 -77.5 t-20.5 -103q0 -59 8.5 -99t20.5 -77h287l-48 -211h-194q0 -8 1 -13t1 -13q0 -102 -43 -186.5t-94 -129.5l-97 -61l-2 -13l138 31h446l-49 -221h-918z" />
<glyph unicode="&#xa4;" d="M84 307l158 160l73 35q-25 43 -39 93t-14 112q0 59 15.5 110t39.5 98l-75 35l-158 160l156 164l159 -158l39 -76q41 31 97.5 46.5t117.5 15.5q59 0 117.5 -15.5t97.5 -44.5l41 74l160 158l158 -164l-158 -160l-78 -32q31 -43 43.5 -97.5t12.5 -113.5q0 -61 -13.5 -115.5 t-42.5 -91.5l78 -33l158 -160l-158 -164l-160 158l-37 76q-39 -29 -99 -45.5t-120 -16.5q-61 0 -117.5 15.5t-97.5 44.5l-39 -74l-159 -158zM485 709q0 -78 47.5 -127.5t122.5 -49.5q76 0 122 49.5t46 127.5q0 74 -46 125t-122 51t-123 -51t-47 -125z" />
<glyph unicode="&#xa5;" d="M133 246l35 164h254l24 116h-251l34 164h174l-210 744h311l137 -539l-6 -152h10l62 156l354 535h291l-527 -744h179l-35 -164h-256l-25 -116h256l-35 -164h-256l-51 -246h-266l51 246h-254z" />
<glyph unicode="&#xa6;" horiz-adv-x="464" d="M123 -266v702h219v-702h-219zM123 731v703h219v-703h-219z" />
<glyph unicode="&#xa7;" horiz-adv-x="1034" d="M86 61l88 191q41 -23 103.5 -46.5t146.5 -23.5q72 0 115 28t43 77q0 33 -32 55.5t-79 43t-103.5 44t-103.5 56t-78.5 80.5t-31.5 120q0 92 49 156.5t114 111.5l99 33q-45 33 -67.5 79t-24.5 97q0 61 29.5 116.5t82.5 95.5t128 63.5t163 23.5q115 0 190.5 -23.5 t129.5 -52.5l-76 -194q-41 23 -109.5 41t-136.5 18q-72 0 -111 -29.5t-39 -76.5q0 -35 32 -56.5t79 -39t102.5 -36t102.5 -49t78.5 -78.5t31.5 -122q0 -98 -50 -169t-111 -114l-105 -32q47 -33 69.5 -75t20.5 -108q-2 -141 -112.5 -218t-292.5 -77q-113 0 -199 28t-135 62z M414 719q0 -63 46 -98t148 -68q47 25 90 65.5t43 98.5q0 35 -12 57.5t-36.5 41t-63.5 33.5t-90 34q-45 -25 -85 -66t-40 -98z" />
<glyph unicode="&#xa8;" horiz-adv-x="966" d="M334 1333q0 68 38 106t97 38t97 -38t38 -106q0 -66 -38 -102.5t-97 -36.5t-97 36.5t-38 102.5zM760 1335q0 66 38 104t97 38t97 -38t38 -104t-38 -103.5t-97 -37.5t-97 37.5t-38 103.5z" />
<glyph unicode="&#xa9;" horiz-adv-x="1712" d="M164 594q0 170 57.5 306t156.5 232.5t234.5 148.5t290.5 52q156 0 290 -52t234.5 -148.5t157.5 -232.5t57 -306t-57 -306t-157.5 -232.5t-234.5 -148.5t-290 -52q-170 0 -307 52t-233.5 148.5t-147.5 232.5t-51 306zM362 594q0 -127 41 -229.5t113 -173t171 -108.5 t216 -38t216.5 38t172 108.5t112.5 173t40 229.5t-40 229.5t-112.5 173t-172 108.5t-216.5 38t-216 -38t-171 -108.5t-113 -173t-41 -229.5zM559 594q0 186 93 287.5t247 101.5q76 0 134.5 -17.5t111.5 -47.5l-66 -177q-37 18 -66.5 24.5t-58.5 6.5q-59 0 -94 -40t-35 -138 q0 -86 37 -132t107 -46q39 0 69.5 7t61.5 23l59 -178q-45 -29 -113.5 -46t-146.5 -17q-166 0 -253 104.5t-87 284.5z" />
<glyph unicode="&#xaa;" horiz-adv-x="821" d="M123 944q0 70 30.5 116t82 74.5t119 41t141.5 12.5q25 0 49 -1t49 -3q16 51 -2.5 82.5t-85.5 31.5q-78 0 -132.5 -14t-97.5 -31l-28 127q57 29 147 49.5t207 20.5q123 0 173 -51t50 -127q0 -51 -14 -115.5t-31.5 -132.5t-31 -132.5t-13.5 -113.5h-184l-6 94h-6 q-29 -35 -84.5 -68.5t-141.5 -33.5q-47 0 -82.5 14.5t-59.5 39t-36 56t-12 64.5zM352 991q0 -27 15.5 -44t44.5 -17q61 0 90.5 23.5t50.5 47.5l14 72q-16 2 -33.5 3t-33.5 1q-61 0 -104.5 -18.5t-43.5 -67.5z" />
<glyph unicode="&#xab;" horiz-adv-x="952" d="M63 530l410 471l129 -131l-223 -258l-123 -75l80 -80l123 -258l-158 -121zM442 535l394 442l116 -119l-213 -250l-106 -76l67 -75l115 -248l-153 -111z" />
<glyph unicode="&#xac;" horiz-adv-x="1079" d="M135 614v230h905v-463h-245v233h-660z" />
<glyph unicode="&#xad;" horiz-adv-x="702" d="M115 483l51 213h489l-51 -213h-489z" />
<glyph unicode="&#xae;" horiz-adv-x="1419" d="M240 924q0 137 46 244.5t124.5 181t184 112.5t222.5 39q121 0 226.5 -39t184.5 -112.5t124 -181t45 -244.5q0 -139 -46 -247t-126 -181.5t-185.5 -111.5t-222.5 -38q-121 0 -226.5 38t-183 111.5t-122.5 181.5t-45 247zM432 924q0 -98 31 -172t84 -123t122.5 -74 t147.5 -25q82 0 152.5 24t123 73t82 122.5t29.5 174.5q0 98 -30.5 171.5t-84 123t-124 74t-148.5 24.5q-86 0 -156.5 -26.5t-122 -78t-79 -124t-27.5 -164.5zM606 659v531q33 10 92.5 15t112.5 5q86 0 147.5 -35.5t61.5 -123.5q0 -66 -42 -101t-104 -39l58 -28l133 -224 h-125l-129 213l-98 31v-244h-107zM713 965h69q59 0 92 18t33 64q0 71 -119 71q-23 0 -43 -1t-32 -7v-145z" />
<glyph unicode="&#xaf;" horiz-adv-x="862" d="M283 1159l39 189h630l-39 -189h-630z" />
<glyph unicode="&#xb0;" horiz-adv-x="894" d="M248 1122q0 76 26.5 138.5t72.5 107.5t107.5 69.5t129.5 24.5q70 0 132 -22.5t108 -66.5t73 -107.5t27 -143.5t-27 -142t-73 -105.5t-108.5 -66t-131.5 -22.5q-68 0 -129.5 22.5t-107.5 66t-72.5 105.5t-26.5 142zM453 1122q0 -66 38.5 -103.5t94.5 -37.5q55 0 94 38 t39 103q0 66 -39 106t-94 40t-94 -40t-39 -106z" />
<glyph unicode="&#xb1;" horiz-adv-x="1034" d="M119 289v229h903v-229h-903zM119 829v230h332v338h239v-338h332v-230h-332v-217h-239v217h-332z" />
<glyph unicode="&#xb2;" horiz-adv-x="823" d="M197 778l32 146q59 37 137.5 90t147 112.5t115.5 122t49 117.5q0 37 -19.5 57.5t-72.5 20.5t-104.5 -18.5t-90.5 -39.5l-28 185q76 43 156.5 62.5t150.5 19.5q117 0 180.5 -53.5t63.5 -151.5q-2 -123 -77 -225.5t-208 -200.5l-103 -51v-8l117 22h207l-45 -207h-608z" />
<glyph unicode="&#xb3;" horiz-adv-x="823" d="M213 813l82 184q82 -39 170 -39q100 0 143 38t41 85q0 43 -28.5 61.5t-128.5 20.5h-84l16 78l174 166l94 49l-114 -12h-222l43 194h551l-28 -127l-209 -190l-72 -35v-10l55 6q76 -4 125.5 -53t49.5 -129q0 -86 -32 -149.5t-87.5 -104.5t-131 -61.5t-163.5 -20.5 q-74 0 -138.5 13t-105.5 36z" />
<glyph unicode="&#xb4;" horiz-adv-x="546" d="M260 1159l170 316h256l-12 -62l-273 -254h-141z" />
<glyph unicode="&#xb6;" horiz-adv-x="1101" d="M127 1020q0 82 26.5 156.5t76 132t119 91.5t155.5 34h151v-1700h-217v868q-68 0 -125 34t-99 92t-64.5 133t-22.5 159zM817 -266v1700h217v-1700h-217z" />
<glyph unicode="&#xb7;" horiz-adv-x="518" d="M150 647q0 72 45 114t118 42q76 0 121 -42t45 -114t-45 -115t-121 -43q-74 0 -118.5 43t-44.5 115z" />
<glyph unicode="&#xb8;" horiz-adv-x="581" d="M-82 -418l41 99q104 -10 143 12t39 51q0 66 -159 61l153 195h162l-68 -88q70 -4 107 -43t37 -98q0 -53 -23.5 -92t-63.5 -65t-94.5 -38t-115.5 -12q-78 0 -158 18z" />
<glyph unicode="&#xb9;" horiz-adv-x="823" d="M244 778l43 205h190l72 336l39 94l-72 -65l-129 -76l-69 149l358 232h168l-143 -670h170l-44 -205h-583z" />
<glyph unicode="&#xba;" horiz-adv-x="817" d="M123 1022q0 111 38 192.5t99.5 136t136 81t148.5 26.5q135 0 205.5 -62.5t70.5 -183.5q0 -117 -34.5 -201.5t-94 -140t-136.5 -82t-159 -26.5q-127 0 -200.5 70.5t-73.5 189.5zM348 1034q-2 -45 20.5 -72.5t65.5 -27.5q68 0 115 70.5t47 181.5q0 100 -88 100 q-35 0 -63.5 -20.5t-51 -54t-35 -80t-10.5 -97.5z" />
<glyph unicode="&#xbb;" horiz-adv-x="952" d="M63 219l213 252l107 76l-72 78l-112 247l155 109l219 -428l-391 -451zM414 207l223 258l117 88l-76 80l-127 254l174 114l227 -452l-409 -471z" />
<glyph unicode="&#xbc;" horiz-adv-x="1720" d="M235 1223l367 225h166l-187 -875h-223l115 541l41 94l-74 -65l-129 -74zM383 80l883 1384l174 -102l-880 -1391zM823 160l29 137l542 580h179l-113 -535h147l-38 -182h-148l-35 -160h-196l34 160h-401zM1055 326l106 16h102l37 176l35 109h-10l-64 -100l-123 -136z" />
<glyph unicode="&#xbd;" horiz-adv-x="1765" d="M235 1223l367 225h166l-187 -875h-223l115 541l41 94l-74 -65l-129 -74zM385 80l883 1384l174 -102l-880 -1391zM971 0l32 146q59 37 137.5 90t147 112.5t115.5 122t49 117.5q0 37 -19.5 57.5t-72.5 20.5t-104.5 -18.5t-90.5 -39.5l-28 185q76 43 156.5 62.5t150.5 19.5 q117 0 180.5 -53.5t63.5 -151.5q-2 -123 -77 -225.5t-208 -200.5l-103 -51v-8l117 22h207l-45 -207h-608z" />
<glyph unicode="&#xbe;" horiz-adv-x="1769" d="M131 608l82 184q82 -39 170 -39q100 0 143 38t41 85q0 43 -28.5 61.5t-128.5 20.5h-84l16 78l174 166l94 49l-114 -12h-222l43 194h551l-28 -127l-209 -190l-72 -35v-10l55 6q76 -4 125.5 -53t49.5 -129q0 -86 -32 -149.5t-87.5 -104.5t-131 -61.5t-163.5 -20.5 q-74 0 -138.5 13t-105.5 36zM434 80l883 1384l174 -102l-880 -1391zM874 160l29 137l542 580h179l-113 -535h147l-38 -182h-148l-35 -160h-196l34 160h-401zM1106 326l106 16h102l37 176l35 109h-10l-64 -100l-123 -136z" />
<glyph unicode="&#xbf;" horiz-adv-x="880" d="M-47 -166q0 109 32.5 182.5t84 130t114 101.5t118.5 94t100 109.5t61 148.5h217q-12 -109 -50 -187.5t-88 -137t-106.5 -102.5t-102.5 -85t-77 -84t-31 -100q0 -55 32 -86t114 -31q63 0 139 27.5t135 66.5l62 -192q-84 -53 -182.5 -88t-239.5 -35q-172 0 -252 72.5 t-80 195.5zM436 891q0 72 45 114t119 42q76 0 121 -42t45 -114t-45 -115t-121 -43q-74 0 -119 43t-45 115z" />
<glyph unicode="&#xc0;" horiz-adv-x="1191" d="M-78 0l797 1444h196l187 -1444h-268l-41 317h-418l-170 -317h-283zM492 543h290l-32 319l2 225h-11l-82 -227zM553 1720l12 62h287l153 -242h-184z" />
<glyph unicode="&#xc1;" horiz-adv-x="1191" d="M-78 0l797 1444h196l187 -1444h-268l-41 317h-418l-170 -317h-283zM492 543h290l-32 319l2 225h-11l-82 -227zM647 1540l256 242h322l-12 -62l-353 -180h-213z" />
<glyph unicode="&#xc2;" horiz-adv-x="1191" d="M-78 0l797 1444h196l187 -1444h-268l-41 317h-418l-170 -317h-283zM479 1511l18 82l297 189h179l206 -191l-16 -80h-180l-92 84l-27 70l-55 -68l-138 -86h-192zM492 543h290l-32 319l2 225h-11l-82 -227z" />
<glyph unicode="&#xc3;" horiz-adv-x="1191" d="M-78 0l797 1444h196l187 -1444h-268l-41 317h-418l-170 -317h-283zM491 1638q78 72 141.5 98.5t118.5 26.5q43 0 83 -11t78 -24.5t74 -24.5t72 -11q31 0 62 10t63 39l21 -137q-68 -55 -123 -76t-104 -21q-43 0 -81 11.5t-75 23.5t-73 23.5t-75 11.5q-37 0 -76.5 -14.5 t-86.5 -53.5zM492 543h290l-32 319l2 225h-11l-82 -227z" />
<glyph unicode="&#xc4;" horiz-adv-x="1191" d="M-78 0l797 1444h196l187 -1444h-268l-41 317h-418l-170 -317h-283zM492 543h290l-32 319l2 225h-11l-82 -227zM504 1634q0 59 41 89t106 30q66 0 107 -29.5t41 -89.5q0 -59 -41 -87.5t-107 -28.5t-106.5 28.5t-40.5 87.5zM922 1634q0 59 41 89t106 30q66 0 107 -29.5 t41 -89.5q0 -59 -41 -87.5t-107 -28.5t-106.5 28.5t-40.5 87.5z" />
<glyph unicode="&#xc5;" horiz-adv-x="1191" d="M-78 0l783 1419q-66 23 -92.5 64t-26.5 96q0 37 12 70.5t42 59.5t80 40t128 14q143 0 202.5 -49t59.5 -135q0 -66 -42 -114t-148 -60l182 -1405h-268l-41 317h-418l-170 -317h-283zM492 543h290l-32 319l2 225h-11l-82 -227zM758 1579q0 -63 90 -63q51 0 71.5 16t20.5 47 q0 68 -92 68q-90 0 -90 -68z" />
<glyph unicode="&#xc6;" horiz-adv-x="1691" d="M-135 0l1120 1434h272h555l-53 -250h-540l-72 -334h493l-53 -250h-491l-74 -350h551l-53 -250h-535h-283l74 348h-350l-262 -348h-299zM592 575h233l107 510h-12l-91 -192z" />
<glyph unicode="&#xc7;" horiz-adv-x="1099" d="M119 557q0 242 67.5 413t178 280.5t253 160.5t291.5 51q117 0 200 -17.5t130 -39.5l-104 -238q-41 23 -98.5 34t-145.5 11q-104 0 -194.5 -43t-156 -122.5t-103.5 -194.5t-38 -260q0 -174 87 -272.5t233 -98.5q92 0 152.5 19.5t113.5 48.5l4 -230q-133 -86 -321 -88 l-45 -59q70 -4 106.5 -42t36.5 -97q0 -53 -23.5 -92t-63.5 -65t-94.5 -38t-115.5 -12q-78 0 -158 18l41 99q104 -10 143.5 12t39.5 51q0 35 -41 48t-119 11l141 181q-100 20 -175 72.5t-124 128t-73.5 170t-24.5 200.5z" />
<glyph unicode="&#xc8;" horiz-adv-x="1030" d="M41 0l303 1434h266h541l-53 -250h-541l-72 -334h494l-55 -250h-490l-76 -350h551l-51 -250h-551h-266zM474 1720l12 62h287l153 -242h-184z" />
<glyph unicode="&#xc9;" horiz-adv-x="1030" d="M41 0l303 1434h266h541l-53 -250h-541l-72 -334h494l-55 -250h-490l-76 -350h551l-51 -250h-551h-266zM610 1540l256 242h322l-12 -62l-353 -180h-213z" />
<glyph unicode="&#xca;" horiz-adv-x="1030" d="M41 0l303 1434h266h541l-53 -250h-541l-72 -334h494l-55 -250h-490l-76 -350h551l-51 -250h-551h-266zM420 1511l18 82l297 189h179l206 -191l-16 -80h-180l-92 84l-27 70l-55 -68l-138 -86h-192z" />
<glyph unicode="&#xcb;" horiz-adv-x="1030" d="M41 0l303 1434h266h541l-53 -250h-541l-72 -334h494l-55 -250h-490l-76 -350h551l-51 -250h-551h-266zM430 1634q0 59 41 89t106 30q66 0 107 -29.5t41 -89.5q0 -59 -41 -87.5t-107 -28.5t-106.5 28.5t-40.5 87.5zM848 1634q0 59 41 89t106 30q66 0 107 -29.5t41 -89.5 q0 -59 -41 -87.5t-107 -28.5t-106.5 28.5t-40.5 87.5z" />
<glyph unicode="&#xcc;" horiz-adv-x="569" d="M72 0l303 1434h264l-303 -1434h-264zM232 1720l12 62h287l153 -242h-184z" />
<glyph unicode="&#xcd;" horiz-adv-x="569" d="M72 0l303 1434h264l-303 -1434h-264zM364 1540l256 242h322l-12 -62l-353 -180h-213z" />
<glyph unicode="&#xce;" horiz-adv-x="569" d="M72 0l303 1434h264l-303 -1434h-264zM178 1511l18 82l297 189h179l206 -191l-16 -80h-180l-92 84l-27 70l-55 -68l-138 -86h-192z" />
<glyph unicode="&#xcf;" horiz-adv-x="569" d="M72 0l303 1434h264l-303 -1434h-264zM188 1634q0 59 41 89t106 30q66 0 107 -29.5t41 -89.5q0 -59 -41 -87.5t-107 -28.5t-106.5 28.5t-40.5 87.5zM606 1634q0 59 41 89t106 30q66 0 107 -29.5t41 -89.5q0 -59 -41 -87.5t-107 -28.5t-106.5 28.5t-40.5 87.5z" />
<glyph unicode="&#xd0;" horiz-adv-x="1310" d="M47 657l35 164h174l129 613q43 6 94 10t97.5 6t74.5 2q20 0 53 1t72 1q127 0 229.5 -31.5t175 -97t112.5 -168t40 -244.5q0 -90 -15 -193.5t-52 -207.5t-101.5 -200.5t-162 -170t-233.5 -119t-316 -45.5q-31 0 -59.5 1.5t-45.5 1.5q-37 2 -89 5t-102.5 6t-74.5 7l139 659 h-174zM397 233q8 -2 25.5 -3t38 -2t39 -1h28.5q143 0 243.5 64.5t163 162t90.5 211t28 212.5q0 164 -69 245.5t-230 81.5q-39 0 -84 -2t-70 -6l-80 -375h271l-35 -164h-271z" />
<glyph unicode="&#xd1;" horiz-adv-x="1292" d="M41 0l307 1444h184l353 -766l63 -223h13l14 223l162 756h252l-308 -1444h-184l-350 760l-68 229h-10l-18 -229l-158 -750h-252zM530 1638q78 72 141.5 98.5t118.5 26.5q43 0 83 -11t78 -24.5t74 -24.5t72 -11q31 0 62 10t63 39l21 -137q-68 -55 -123 -76t-104 -21 q-43 0 -81 11.5t-75 23.5t-73 23.5t-75 11.5q-37 0 -76.5 -14.5t-86.5 -53.5z" />
<glyph unicode="&#xd2;" horiz-adv-x="1318" d="M119 537q0 190 52 359t148.5 295t232.5 198.5t304 72.5q111 0 200 -32.5t151.5 -101t97 -173t34.5 -248.5q0 -193 -52 -362.5t-147.5 -297.5t-227.5 -202t-291 -74q-242 0 -371 142.5t-131 423.5zM399 545q0 -147 56.5 -235.5t185.5 -88.5q94 0 171 56.5t132 151.5 t85 218t30 256q0 162 -63.5 235.5t-174.5 73.5q-92 0 -169 -53t-133 -144t-88 -213t-32 -257zM594 1720l12 62h287l153 -242h-184z" />
<glyph unicode="&#xd3;" horiz-adv-x="1318" d="M119 537q0 190 52 359t148.5 295t232.5 198.5t304 72.5q111 0 200 -32.5t151.5 -101t97 -173t34.5 -248.5q0 -193 -52 -362.5t-147.5 -297.5t-227.5 -202t-291 -74q-242 0 -371 142.5t-131 423.5zM399 545q0 -147 56.5 -235.5t185.5 -88.5q94 0 171 56.5t132 151.5 t85 218t30 256q0 162 -63.5 235.5t-174.5 73.5q-92 0 -169 -53t-133 -144t-88 -213t-32 -257zM749 1540l256 242h322l-12 -62l-353 -180h-213z" />
<glyph unicode="&#xd4;" horiz-adv-x="1318" d="M119 537q0 190 52 359t148.5 295t232.5 198.5t304 72.5q111 0 200 -32.5t151.5 -101t97 -173t34.5 -248.5q0 -193 -52 -362.5t-147.5 -297.5t-227.5 -202t-291 -74q-242 0 -371 142.5t-131 423.5zM399 545q0 -147 56.5 -235.5t185.5 -88.5q94 0 171 56.5t132 151.5 t85 218t30 256q0 162 -63.5 235.5t-174.5 73.5q-92 0 -169 -53t-133 -144t-88 -213t-32 -257zM551 1511l18 82l297 189h179l206 -191l-16 -80h-180l-92 84l-27 70l-55 -68l-138 -86h-192z" />
<glyph unicode="&#xd5;" horiz-adv-x="1318" d="M119 537q0 190 52 359t148.5 295t232.5 198.5t304 72.5q111 0 200 -32.5t151.5 -101t97 -173t34.5 -248.5q0 -193 -52 -362.5t-147.5 -297.5t-227.5 -202t-291 -74q-242 0 -371 142.5t-131 423.5zM399 545q0 -147 56.5 -235.5t185.5 -88.5q94 0 171 56.5t132 151.5 t85 218t30 256q0 162 -63.5 235.5t-174.5 73.5q-92 0 -169 -53t-133 -144t-88 -213t-32 -257zM549 1638q78 72 141.5 98.5t118.5 26.5q43 0 83 -11t78 -24.5t74 -24.5t72 -11q31 0 62 10t63 39l21 -137q-68 -55 -123 -76t-104 -21q-43 0 -81 11.5t-75 23.5t-73 23.5 t-75 11.5q-37 0 -76.5 -14.5t-86.5 -53.5z" />
<glyph unicode="&#xd6;" horiz-adv-x="1318" d="M119 537q0 190 52 359t148.5 295t232.5 198.5t304 72.5q111 0 200 -32.5t151.5 -101t97 -173t34.5 -248.5q0 -193 -52 -362.5t-147.5 -297.5t-227.5 -202t-291 -74q-242 0 -371 142.5t-131 423.5zM399 545q0 -147 56.5 -235.5t185.5 -88.5q94 0 171 56.5t132 151.5 t85 218t30 256q0 162 -63.5 235.5t-174.5 73.5q-92 0 -169 -53t-133 -144t-88 -213t-32 -257zM553 1634q0 59 41 89t106 30q66 0 107 -29.5t41 -89.5q0 -59 -41 -87.5t-107 -28.5t-106.5 28.5t-40.5 87.5zM971 1634q0 59 41 89t106 30q66 0 107 -29.5t41 -89.5 q0 -59 -41 -87.5t-107 -28.5t-106.5 28.5t-40.5 87.5z" />
<glyph unicode="&#xd7;" horiz-adv-x="1034" d="M135 426l268 268l-264 260l160 166l268 -266l267 266l161 -166l-266 -260l266 -264l-161 -168l-267 268l-270 -270z" />
<glyph unicode="&#xd8;" horiz-adv-x="1318" d="M117 121l69 86q-33 66 -50 148t-17 182q0 190 52 359t148.5 295t232.5 198.5t304 72.5q176 0 291 -82l55 66l148 -127l-76 -92q31 -61 48 -141t17 -179q0 -193 -52 -362.5t-147.5 -297.5t-227.5 -202t-291 -74q-184 0 -306 84l-55 -65zM399 506q0 -19 4 -37l568 694 q-59 49 -150 49q-92 0 -169 -53t-133 -144t-88 -213t-32 -257v-39zM489 270q57 -49 152 -49q94 0 171 56.5t132 151.5t85 218t30 256v29.5t-2 28.5z" />
<glyph unicode="&#xd9;" horiz-adv-x="1232" d="M129 356q0 41 5 84t16 90l192 904h264l-188 -902q-16 -78 -17 -126q0 -98 51.5 -139.5t149.5 -41.5q123 0 190.5 72t102.5 231l192 906h250l-194 -926q-31 -147 -80 -248.5t-119 -165t-164 -91.5t-217 -28q-119 0 -200.5 28t-134 79t-76 120.5t-23.5 153.5zM549 1720 l12 62h287l153 -242h-184z" />
<glyph unicode="&#xda;" horiz-adv-x="1232" d="M129 356q0 41 5 84t16 90l192 904h264l-188 -902q-16 -78 -17 -126q0 -98 51.5 -139.5t149.5 -41.5q123 0 190.5 72t102.5 231l192 906h250l-194 -926q-31 -147 -80 -248.5t-119 -165t-164 -91.5t-217 -28q-119 0 -200.5 28t-134 79t-76 120.5t-23.5 153.5zM741 1540 l256 242h322l-12 -62l-353 -180h-213z" />
<glyph unicode="&#xdb;" horiz-adv-x="1232" d="M129 356q0 41 5 84t16 90l192 904h264l-188 -902q-16 -78 -17 -126q0 -98 51.5 -139.5t149.5 -41.5q123 0 190.5 72t102.5 231l192 906h250l-194 -926q-31 -147 -80 -248.5t-119 -165t-164 -91.5t-217 -28q-119 0 -200.5 28t-134 79t-76 120.5t-23.5 153.5zM522 1511 l18 82l297 189h179l206 -191l-16 -80h-180l-92 84l-27 70l-55 -68l-138 -86h-192z" />
<glyph unicode="&#xdc;" horiz-adv-x="1232" d="M129 356q0 41 5 84t16 90l192 904h264l-188 -902q-16 -78 -17 -126q0 -98 51.5 -139.5t149.5 -41.5q123 0 190.5 72t102.5 231l192 906h250l-194 -926q-31 -147 -80 -248.5t-119 -165t-164 -91.5t-217 -28q-119 0 -200.5 28t-134 79t-76 120.5t-23.5 153.5zM524 1634 q0 59 41 89t106 30q66 0 107 -29.5t41 -89.5q0 -59 -41 -87.5t-107 -28.5t-106.5 28.5t-40.5 87.5zM942 1634q0 59 41 89t106 30q66 0 107 -29.5t41 -89.5q0 -59 -41 -87.5t-107 -28.5t-106.5 28.5t-40.5 87.5z" />
<glyph unicode="&#xdd;" horiz-adv-x="1165" d="M217 1434h295l133 -539l-4 -152h8l64 156l358 535h305l-637 -899l-112 -535h-265l111 532zM667 1540l256 242h322l-12 -62l-353 -180h-213z" />
<glyph unicode="&#xde;" horiz-adv-x="1126" d="M41 0l305 1434h264l-30 -146q27 2 53 2h53q104 0 193.5 -23.5t156 -72.5t103.5 -126t37 -183q0 -160 -55.5 -267.5t-146.5 -174t-208 -94t-238 -27.5h-31.5t-45 1t-45 2t-31.5 3l-68 -328h-266zM428 573q8 -2 22.5 -4t32 -3t32.5 -2t24 -1q70 0 134 14.5t113.5 48t79 89 t29.5 135.5q0 61 -19.5 99t-52 60.5t-77 31t-93.5 8.5q-37 0 -70.5 -3.5t-56.5 -7.5q-25 -119 -49 -233.5t-49 -231.5z" />
<glyph unicode="&#xdf;" horiz-adv-x="1245" d="M-264 -369l69 187q35 -14 70 -18.5t88 -4.5q66 0 101.5 51.5t52.5 153.5l145 815h-168l41 209h166l12 57q25 117 72 188.5t112.5 111.5t147.5 54.5t178 14.5q104 0 176 -22.5t117 -60.5t65.5 -88t20.5 -108q0 -72 -23.5 -123t-58.5 -87.5t-77 -63.5t-76.5 -51.5t-58 -51 t-23.5 -61.5t23.5 -57.5t58 -41t76.5 -39t77 -52t58.5 -79.5t23.5 -122q0 -80 -36 -148.5t-98 -117.5t-147 -77t-184 -28q-84 0 -166 23.5t-133 58.5l115 199q43 -27 91 -47.5t118 -20.5q31 0 61.5 10.5t55 29t40 46t15.5 62.5q0 39 -23.5 64.5t-59.5 46t-78 42t-78 51 t-59.5 72.5t-23.5 109q0 59 23.5 103t59.5 77t77 58.5t77 50t59.5 52t23.5 64.5q0 47 -37 77t-107 30q-98 0 -157.5 -54.5t-81.5 -175.5l-182 -999q-18 -104 -43 -184t-67 -133.5t-103.5 -81t-151.5 -27.5q-74 0 -144.5 11.5t-121.5 45.5z" />
<glyph unicode="&#xe0;" horiz-adv-x="1030" d="M68 295q0 150 37.5 287t117.5 241.5t202 167t290 62.5q72 0 156.5 -13.5t164.5 -35.5l-127 -594q-16 -78 -23 -158t-7 -152q0 -29 1 -54.5t3 -47.5h-187l-28 176h-9q-23 -37 -58.5 -72.5t-78.5 -65.5t-91 -47.5t-99 -17.5q-135 0 -199.5 88t-64.5 236zM328 344 q0 -66 21.5 -114t78.5 -48q37 0 69.5 15.5t60.5 40t49.5 53t37.5 53.5l103 477q-23 10 -52.5 15.5t-58.5 5.5q-74 0 -131 -44t-97 -115t-60.5 -160t-20.5 -179zM465 1413l14 62h264l50 -316h-142z" />
<glyph unicode="&#xe1;" horiz-adv-x="1030" d="M68 295q0 150 37.5 287t117.5 241.5t202 167t290 62.5q72 0 156.5 -13.5t164.5 -35.5l-127 -594q-16 -78 -23 -158t-7 -152q0 -29 1 -54.5t3 -47.5h-187l-28 176h-9q-23 -37 -58.5 -72.5t-78.5 -65.5t-91 -47.5t-99 -17.5q-135 0 -199.5 88t-64.5 236zM328 344 q0 -66 21.5 -114t78.5 -48q37 0 69.5 15.5t60.5 40t49.5 53t37.5 53.5l103 477q-23 10 -52.5 15.5t-58.5 5.5q-74 0 -131 -44t-97 -115t-60.5 -160t-20.5 -179zM610 1159l170 316h256l-12 -62l-273 -254h-141z" />
<glyph unicode="&#xe2;" horiz-adv-x="1030" d="M68 295q0 150 37.5 287t117.5 241.5t202 167t290 62.5q72 0 156.5 -13.5t164.5 -35.5l-127 -594q-16 -78 -23 -158t-7 -152q0 -29 1 -54.5t3 -47.5h-187l-28 176h-9q-23 -37 -58.5 -72.5t-78.5 -65.5t-91 -47.5t-99 -17.5q-135 0 -199.5 88t-64.5 236zM328 344 q0 -66 21.5 -114t78.5 -48q37 0 69.5 15.5t60.5 40t49.5 53t37.5 53.5l103 477q-23 10 -52.5 15.5t-58.5 5.5q-74 0 -131 -44t-97 -115t-60.5 -160t-20.5 -179zM387 1126l320 373h168l137 -373h-197l-49 136l-8 100l-55 -100l-117 -136h-199z" />
<glyph unicode="&#xe3;" horiz-adv-x="1030" d="M68 295q0 150 37.5 287t117.5 241.5t202 167t290 62.5q72 0 156.5 -13.5t164.5 -35.5l-127 -594q-16 -78 -23 -158t-7 -152q0 -29 1 -54.5t3 -47.5h-187l-28 176h-9q-23 -37 -58.5 -72.5t-78.5 -65.5t-91 -47.5t-99 -17.5q-135 0 -199.5 88t-64.5 236zM328 344 q0 -66 21.5 -114t78.5 -48q37 0 69.5 15.5t60.5 40t49.5 53t37.5 53.5l103 477q-23 10 -52.5 15.5t-58.5 5.5q-74 0 -131 -44t-97 -115t-60.5 -160t-20.5 -179zM401 1348q72 76 126 104.5t99 28.5q37 0 69 -14.5t63.5 -31t63.5 -30.5t69 -14q29 0 62.5 12t74.5 43l8 -143 q-66 -66 -117 -91.5t-94 -25.5q-37 0 -69.5 13t-65.5 29.5t-65.5 30t-69.5 13.5q-31 0 -68 -12.5t-78 -45.5z" />
<glyph unicode="&#xe4;" horiz-adv-x="1030" d="M68 295q0 150 37.5 287t117.5 241.5t202 167t290 62.5q72 0 156.5 -13.5t164.5 -35.5l-127 -594q-16 -78 -23 -158t-7 -152q0 -29 1 -54.5t3 -47.5h-187l-28 176h-9q-23 -37 -58.5 -72.5t-78.5 -65.5t-91 -47.5t-99 -17.5q-135 0 -199.5 88t-64.5 236zM328 344 q0 -66 21.5 -114t78.5 -48q37 0 69.5 15.5t60.5 40t49.5 53t37.5 53.5l103 477q-23 10 -52.5 15.5t-58.5 5.5q-74 0 -131 -44t-97 -115t-60.5 -160t-20.5 -179zM348 1333q0 68 38 106t97 38t97 -38t38 -106q0 -66 -38 -102.5t-97 -36.5t-97 36.5t-38 102.5zM774 1335 q0 66 38 104t97 38t97 -38t38 -104t-38 -103.5t-97 -37.5t-97 37.5t-38 103.5z" />
<glyph unicode="&#xe5;" horiz-adv-x="1030" d="M68 295q0 150 37.5 287t117.5 241.5t202 167t290 62.5q72 0 156.5 -13.5t164.5 -35.5l-127 -594q-16 -78 -23 -158t-7 -152q0 -29 1 -54.5t3 -47.5h-187l-28 176h-9q-23 -37 -58.5 -72.5t-78.5 -65.5t-91 -47.5t-99 -17.5q-135 0 -199.5 88t-64.5 236zM328 344 q0 -66 21.5 -114t78.5 -48q37 0 69.5 15.5t60.5 40t49.5 53t37.5 53.5l103 477q-23 10 -52.5 15.5t-58.5 5.5q-74 0 -131 -44t-97 -115t-60.5 -160t-20.5 -179zM520 1325q0 86 58.5 141.5t169.5 55.5q104 0 165.5 -50.5t61.5 -146.5q0 -80 -60.5 -136t-166.5 -56 q-109 0 -168.5 52t-59.5 140zM668 1325q0 -33 23.5 -50.5t56.5 -17.5q35 0 57.5 16.5t22.5 51.5t-24 52.5t-56 17.5q-33 0 -56.5 -16.5t-23.5 -53.5z" />
<glyph unicode="&#xe6;" horiz-adv-x="1523" d="M35 242q0 100 45 171.5t123 116.5t180 66.5t219 21.5h33.5t34.5 -2q23 78 22 121q0 49 -30.5 73t-104.5 24q-68 0 -143.5 -16.5t-141.5 -43.5l-36 191q84 41 193.5 60t211.5 19q94 0 159.5 -29.5t92.5 -92.5q59 63 148 97t182 34q86 0 146.5 -19.5t98 -54.5t55 -81 t17.5 -101q0 -115 -54 -184.5t-146.5 -109.5t-213 -54.5t-252.5 -14.5q-2 -16 -3 -31.5t-1 -29.5q0 -92 47.5 -141.5t155.5 -49.5q78 0 146.5 21.5t109.5 46.5l47 -176q-70 -49 -175 -76t-210 -27q-135 0 -218 49.5t-118 137.5h-10q-66 -74 -151.5 -124t-202.5 -50 q-68 0 -116 21.5t-78.5 57t-46 83t-15.5 96.5zM295 303q0 -55 28.5 -79.5t75.5 -24.5q37 0 71 15t62.5 36.5t51 45t37.5 42.5l18 119q-16 2 -33.5 2h-34.5q-117 0 -196.5 -38t-79.5 -118zM915 598q66 0 133.5 3t123 18.5t90 47t34.5 87.5q0 35 -24.5 64.5t-91.5 29.5 q-109 0 -171.5 -73t-93.5 -177z" />
<glyph unicode="&#xe7;" horiz-adv-x="843" d="M70 324q0 172 49 307t130 228t184.5 143.5t211.5 50.5q96 0 152.5 -18.5t101.5 -41.5l-94 -200q-39 23 -81 30.5t-91 7.5q-55 0 -107.5 -35.5t-94.5 -94t-66.5 -136.5t-24.5 -159q0 -104 45 -158.5t119 -54.5q61 0 113.5 19t93.5 44l47 -172q-53 -39 -119 -67.5 t-135 -39.5l-49 -65q70 -4 106.5 -42t36.5 -97q0 -53 -23.5 -92t-63.5 -65t-94.5 -38t-115.5 -12q-78 0 -158 18l41 99q104 -10 143.5 12t39.5 51q0 35 -41 48t-119 11l135 175q-74 12 -125 43.5t-84 77.5t-48 103.5t-15 119.5z" />
<glyph unicode="&#xe8;" horiz-adv-x="954" d="M70 340q0 164 51 296t134 224t187.5 142.5t208.5 50.5q84 0 144.5 -21.5t99.5 -59.5t57.5 -87t18.5 -105q0 -84 -43 -147.5t-120 -105.5t-185.5 -63.5t-237.5 -21.5q-16 0 -30.5 1t-30.5 1q-4 -25 -6.5 -44t-2.5 -35q0 -92 48.5 -137.5t136.5 -45.5q90 0 161.5 27 t108.5 53l53 -164q-63 -53 -163.5 -90t-233.5 -37q-166 0 -261 97.5t-95 271.5zM360 604q57 0 122 4t120 19.5t92 45t37 81.5q0 31 -22.5 62.5t-94.5 31.5q-90 0 -156.5 -70t-97.5 -174zM424 1413l14 62h264l50 -316h-142z" />
<glyph unicode="&#xe9;" horiz-adv-x="954" d="M70 340q0 164 51 296t134 224t187.5 142.5t208.5 50.5q84 0 144.5 -21.5t99.5 -59.5t57.5 -87t18.5 -105q0 -84 -43 -147.5t-120 -105.5t-185.5 -63.5t-237.5 -21.5q-16 0 -30.5 1t-30.5 1q-4 -25 -6.5 -44t-2.5 -35q0 -92 48.5 -137.5t136.5 -45.5q90 0 161.5 27 t108.5 53l53 -164q-63 -53 -163.5 -90t-233.5 -37q-166 0 -261 97.5t-95 271.5zM360 604q57 0 122 4t120 19.5t92 45t37 81.5q0 31 -22.5 62.5t-94.5 31.5q-90 0 -156.5 -70t-97.5 -174zM577 1159l170 316h256l-12 -62l-273 -254h-141z" />
<glyph unicode="&#xea;" horiz-adv-x="954" d="M70 340q0 164 51 296t134 224t187.5 142.5t208.5 50.5q84 0 144.5 -21.5t99.5 -59.5t57.5 -87t18.5 -105q0 -84 -43 -147.5t-120 -105.5t-185.5 -63.5t-237.5 -21.5q-16 0 -30.5 1t-30.5 1q-4 -25 -6.5 -44t-2.5 -35q0 -92 48.5 -137.5t136.5 -45.5q90 0 161.5 27 t108.5 53l53 -164q-63 -53 -163.5 -90t-233.5 -37q-166 0 -261 97.5t-95 271.5zM340 1126l320 373h168l137 -373h-197l-49 136l-8 100l-55 -100l-117 -136h-199zM360 604q57 0 122 4t120 19.5t92 45t37 81.5q0 31 -22.5 62.5t-94.5 31.5q-90 0 -156.5 -70t-97.5 -174z" />
<glyph unicode="&#xeb;" horiz-adv-x="954" d="M70 340q0 164 51 296t134 224t187.5 142.5t208.5 50.5q84 0 144.5 -21.5t99.5 -59.5t57.5 -87t18.5 -105q0 -84 -43 -147.5t-120 -105.5t-185.5 -63.5t-237.5 -21.5q-16 0 -30.5 1t-30.5 1q-4 -25 -6.5 -44t-2.5 -35q0 -92 48.5 -137.5t136.5 -45.5q90 0 161.5 27 t108.5 53l53 -164q-63 -53 -163.5 -90t-233.5 -37q-166 0 -261 97.5t-95 271.5zM334 1333q0 68 38 106t97 38t97 -38t38 -106q0 -66 -38 -102.5t-97 -36.5t-97 36.5t-38 102.5zM360 604q57 0 122 4t120 19.5t92 45t37 81.5q0 31 -22.5 62.5t-94.5 31.5q-90 0 -156.5 -70 t-97.5 -174zM760 1335q0 66 38 104t97 38t97 -38t38 -104t-38 -103.5t-97 -37.5t-97 37.5t-38 103.5z" />
<glyph unicode="&#xec;" horiz-adv-x="524" d="M55 0l217 1024h252l-217 -1024h-252zM215 1413l14 62h264l50 -316h-142z" />
<glyph unicode="&#xed;" horiz-adv-x="524" d="M55 0l217 1024h252l-217 -1024h-252zM315 1159l170 316h256l-12 -62l-273 -254h-141z" />
<glyph unicode="&#xee;" horiz-adv-x="524" d="M55 0l217 1024h252l-217 -1024h-252zM98 1126l320 373h168l137 -373h-197l-49 136l-8 100l-55 -100l-117 -136h-199z" />
<glyph unicode="&#xef;" horiz-adv-x="524" d="M55 0l217 1024h252l-217 -1024h-252zM113 1333q0 68 38 106t97 38t97 -38t38 -106q0 -66 -38 -102.5t-97 -36.5t-97 36.5t-38 102.5zM539 1335q0 66 38 104t97 38t97 -38t38 -104t-38 -103.5t-97 -37.5t-97 37.5t-38 103.5z" />
<glyph unicode="&#xf0;" horiz-adv-x="1040" d="M76 352q0 143 42 266t112.5 213.5t163.5 140.5t198 50q141 0 207 -78q4 66 -8.5 120t-34.5 101l-154 -63l-65 110l143 60q-37 37 -81 63.5t-91 42.5l199 84q92 -35 167 -110l150 61l57 -110l-131 -56q35 -63 55.5 -141t20.5 -170q0 -252 -48 -434.5t-130 -300 t-189.5 -174t-226.5 -56.5q-164 0 -260 97.5t-96 283.5zM336 362q0 -86 33.5 -133t93.5 -47q80 0 136 57.5t91 140.5t51.5 177t14.5 166q-16 41 -54 65.5t-92 24.5q-61 0 -111 -39t-86 -102.5t-56.5 -144.5t-20.5 -165z" />
<glyph unicode="&#xf1;" horiz-adv-x="1067" d="M29 0l217 1024h190l-10 -180h8q27 33 63 69.5t83 67.5t105.5 51.5t131.5 20.5q92 0 147.5 -50.5t55.5 -166.5q0 -31 -3 -66t-13 -76l-148 -694h-252l136 635q12 57 12 100q0 45 -18.5 70.5t-67.5 25.5q-37 0 -74 -18t-69.5 -49t-61.5 -69t-49 -77l-131 -618h-252z M414 1348q72 76 126 104.5t99 28.5q37 0 69 -14.5t63.5 -31t63.5 -30.5t69 -14q29 0 62.5 12t74.5 43l8 -143q-66 -66 -117 -91.5t-94 -25.5q-37 0 -69.5 13t-65.5 29.5t-65.5 30t-69.5 13.5q-31 0 -68 -12.5t-78 -45.5z" />
<glyph unicode="&#xf2;" horiz-adv-x="1015" d="M70 332q0 162 46 295t122.5 227t178 146.5t212.5 52.5q98 0 165.5 -31t109.5 -82t60.5 -116.5t18.5 -135.5q0 -160 -45 -292t-121 -226t-176 -146.5t-211 -52.5q-96 0 -163.5 32t-111.5 83t-64.5 115.5t-20.5 130.5zM330 367q0 -184 133 -185q49 0 96 43t84 113t58.5 158 t21.5 176q0 82 -27.5 126t-103.5 44q-49 0 -96 -41t-84 -107.5t-59.5 -152.5t-22.5 -174zM440 1413l14 62h264l50 -316h-142z" />
<glyph unicode="&#xf3;" horiz-adv-x="1015" d="M70 332q0 162 46 295t122.5 227t178 146.5t212.5 52.5q98 0 165.5 -31t109.5 -82t60.5 -116.5t18.5 -135.5q0 -160 -45 -292t-121 -226t-176 -146.5t-211 -52.5q-96 0 -163.5 32t-111.5 83t-64.5 115.5t-20.5 130.5zM330 367q0 -184 133 -185q49 0 96 43t84 113t58.5 158 t21.5 176q0 82 -27.5 126t-103.5 44q-49 0 -96 -41t-84 -107.5t-59.5 -152.5t-22.5 -174zM573 1159l170 316h256l-12 -62l-273 -254h-141z" />
<glyph unicode="&#xf4;" horiz-adv-x="1015" d="M70 332q0 162 46 295t122.5 227t178 146.5t212.5 52.5q98 0 165.5 -31t109.5 -82t60.5 -116.5t18.5 -135.5q0 -160 -45 -292t-121 -226t-176 -146.5t-211 -52.5q-96 0 -163.5 32t-111.5 83t-64.5 115.5t-20.5 130.5zM330 367q0 -184 133 -185q49 0 96 43t84 113t58.5 158 t21.5 176q0 82 -27.5 126t-103.5 44q-49 0 -96 -41t-84 -107.5t-59.5 -152.5t-22.5 -174zM334 1126l320 373h168l137 -373h-197l-49 136l-8 100l-55 -100l-117 -136h-199z" />
<glyph unicode="&#xf5;" horiz-adv-x="1015" d="M70 332q0 162 46 295t122.5 227t178 146.5t212.5 52.5q98 0 165.5 -31t109.5 -82t60.5 -116.5t18.5 -135.5q0 -160 -45 -292t-121 -226t-176 -146.5t-211 -52.5q-96 0 -163.5 32t-111.5 83t-64.5 115.5t-20.5 130.5zM330 367q0 -184 133 -185q49 0 96 43t84 113t58.5 158 t21.5 176q0 82 -27.5 126t-103.5 44q-49 0 -96 -41t-84 -107.5t-59.5 -152.5t-22.5 -174zM364 1348q72 76 126 104.5t99 28.5q37 0 69 -14.5t63.5 -31t63.5 -30.5t69 -14q29 0 62.5 12t74.5 43l8 -143q-66 -66 -117 -91.5t-94 -25.5q-37 0 -69.5 13t-65.5 29.5t-65.5 30 t-69.5 13.5q-31 0 -68 -12.5t-78 -45.5z" />
<glyph unicode="&#xf6;" horiz-adv-x="1015" d="M70 332q0 162 46 295t122.5 227t178 146.5t212.5 52.5q98 0 165.5 -31t109.5 -82t60.5 -116.5t18.5 -135.5q0 -160 -45 -292t-121 -226t-176 -146.5t-211 -52.5q-96 0 -163.5 32t-111.5 83t-64.5 115.5t-20.5 130.5zM330 367q0 -184 133 -185q49 0 96 43t84 113t58.5 158 t21.5 176q0 82 -27.5 126t-103.5 44q-49 0 -96 -41t-84 -107.5t-59.5 -152.5t-22.5 -174zM334 1333q0 68 38 106t97 38t97 -38t38 -106q0 -66 -38 -102.5t-97 -36.5t-97 36.5t-38 102.5zM760 1335q0 66 38 104t97 38t97 -38t38 -104t-38 -103.5t-97 -37.5t-97 37.5 t-38 103.5z" />
<glyph unicode="&#xf7;" horiz-adv-x="1034" d="M119 578v229h905v-229h-905zM408 285q0 72 45 114t118 42q76 0 121 -42t45 -114t-45 -115t-121 -43q-74 0 -118.5 43t-44.5 115zM408 1093q0 72 45 114t118 42q76 0 121 -42t45 -114t-45 -115t-121 -43q-74 0 -118.5 43t-44.5 115z" />
<glyph unicode="&#xf8;" horiz-adv-x="1015" d="M0 74l96 110q-26 68 -26 148q0 162 46 295t122.5 227t178 146.5t212.5 52.5q66 0 117 -14.5t90 -39.5l69 78l131 -121l-86 -96q33 -78 33 -172q0 -160 -45 -292t-121 -226t-176 -146.5t-211 -52.5q-70 0 -124 17.5t-95 46.5l-76 -84zM330 397l360 406q-33 39 -98 39 q-47 0 -92 -38t-81 -99.5t-60.5 -141.5t-28.5 -166zM360 233q33 -51 103 -51q47 0 92 40t81 104.5t59.5 146.5t27.5 166z" />
<glyph unicode="&#xf9;" horiz-adv-x="1048" d="M80 197q0 76 20 165l142 662h252l-134 -633q-12 -61 -12 -102t16.5 -63.5t57.5 -22.5q35 0 70.5 17.5t68.5 45t60.5 61t46.5 66.5l131 631h252l-129 -614q-10 -41 -17.5 -96.5t-13.5 -114t-8 -111.5t0 -88h-203l-10 184h-8q-29 -39 -67 -76.5t-84 -68.5t-100.5 -49.5 t-115.5 -18.5q-96 0 -155.5 48.5t-59.5 177.5zM434 1413l14 62h264l50 -316h-142z" />
<glyph unicode="&#xfa;" horiz-adv-x="1048" d="M80 197q0 76 20 165l142 662h252l-134 -633q-12 -61 -12 -102t16.5 -63.5t57.5 -22.5q35 0 70.5 17.5t68.5 45t60.5 61t46.5 66.5l131 631h252l-129 -614q-10 -41 -17.5 -96.5t-13.5 -114t-8 -111.5t0 -88h-203l-10 184h-8q-29 -39 -67 -76.5t-84 -68.5t-100.5 -49.5 t-115.5 -18.5q-96 0 -155.5 48.5t-59.5 177.5zM549 1159l170 316h256l-12 -62l-273 -254h-141z" />
<glyph unicode="&#xfb;" horiz-adv-x="1048" d="M80 197q0 76 20 165l142 662h252l-134 -633q-12 -61 -12 -102t16.5 -63.5t57.5 -22.5q35 0 70.5 17.5t68.5 45t60.5 61t46.5 66.5l131 631h252l-129 -614q-10 -41 -17.5 -96.5t-13.5 -114t-8 -111.5t0 -88h-203l-10 184h-8q-29 -39 -67 -76.5t-84 -68.5t-100.5 -49.5 t-115.5 -18.5q-96 0 -155.5 48.5t-59.5 177.5zM346 1126l320 373h168l137 -373h-197l-49 136l-8 100l-55 -100l-117 -136h-199z" />
<glyph unicode="&#xfc;" horiz-adv-x="1048" d="M80 197q0 76 20 165l142 662h252l-134 -633q-12 -61 -12 -102t16.5 -63.5t57.5 -22.5q35 0 70.5 17.5t68.5 45t60.5 61t46.5 66.5l131 631h252l-129 -614q-10 -41 -17.5 -96.5t-13.5 -114t-8 -111.5t0 -88h-203l-10 184h-8q-29 -39 -67 -76.5t-84 -68.5t-100.5 -49.5 t-115.5 -18.5q-96 0 -155.5 48.5t-59.5 177.5zM352 1333q0 68 38 106t97 38t97 -38t38 -106q0 -66 -38 -102.5t-97 -36.5t-97 36.5t-38 102.5zM778 1335q0 66 38 104t97 38t97 -38t38 -104t-38 -103.5t-97 -37.5t-97 37.5t-38 103.5z" />
<glyph unicode="&#xfd;" horiz-adv-x="925" d="M-35 -389l68 201q12 -6 25.5 -8.5t25.5 -2.5q49 0 100.5 47.5t102.5 151.5l-193 1024h289l59 -575l2 -160h13l55 162l279 573h268l-492 -920q-61 -115 -115.5 -211t-109.5 -165.5t-114.5 -108.5t-127.5 -39q-90 0 -135 31zM506 1159l170 316h256l-12 -62l-273 -254h-141z " />
<glyph unicode="&#xfe;" horiz-adv-x="1036" d="M-53 -410l391 1844h252l-127 -549h8q25 33 55.5 63.5t69.5 53t86 37t106 14.5q104 0 168 -72t64 -225q0 -174 -46 -318.5t-123 -248t-180.5 -161t-215.5 -57.5q-53 0 -100.5 10.5t-69.5 26.5l-88 -418h-250zM328 217q51 -35 114 -35t119.5 43t98.5 115t67 167t25 200 q0 59 -23.5 97t-71.5 38q-37 0 -71.5 -18.5t-65.5 -46t-55.5 -62.5t-42.5 -68z" />
<glyph unicode="&#xff;" horiz-adv-x="925" d="M-35 -389l68 201q12 -6 25.5 -8.5t25.5 -2.5q49 0 100.5 47.5t102.5 151.5l-193 1024h289l59 -575l2 -160h13l55 162l279 573h268l-492 -920q-61 -115 -115.5 -211t-109.5 -165.5t-114.5 -108.5t-127.5 -39q-90 0 -135 31zM268 1333q0 68 38 106t97 38t97 -38t38 -106 q0 -66 -38 -102.5t-97 -36.5t-97 36.5t-38 102.5zM694 1335q0 66 38 104t97 38t97 -38t38 -104t-38 -103.5t-97 -37.5t-97 37.5t-38 103.5z" />
<glyph unicode="&#x100;" horiz-adv-x="1191" d="M-78 0l797 1444h196l187 -1444h-268l-41 317h-418l-170 -317h-283zM492 543h290l-32 319l2 225h-11l-82 -227zM497 1571l37 182h670l-39 -182h-668z" />
<glyph unicode="&#x101;" horiz-adv-x="1030" d="M68 295q0 150 37.5 287t117.5 241.5t202 167t290 62.5q72 0 156.5 -13.5t164.5 -35.5l-127 -594q-16 -78 -23 -158t-7 -152q0 -29 1 -54.5t3 -47.5h-187l-28 176h-9q-23 -37 -58.5 -72.5t-78.5 -65.5t-91 -47.5t-99 -17.5q-135 0 -199.5 88t-64.5 236zM328 344 q0 -66 21.5 -114t78.5 -48q37 0 69.5 15.5t60.5 40t49.5 53t37.5 53.5l103 477q-23 10 -52.5 15.5t-58.5 5.5q-74 0 -131 -44t-97 -115t-60.5 -160t-20.5 -179zM371 1159l39 189h630l-39 -189h-630z" />
<glyph unicode="&#x102;" horiz-adv-x="1191" d="M-78 0l797 1444h196l187 -1444h-268l-41 317h-418l-170 -317h-283zM492 543h290l-32 319l2 225h-11l-82 -227zM506 1716l98 76q37 -53 90.5 -82t133.5 -29q113 0 188.5 31t132.5 80l100 -66q-35 -61 -82 -105t-102 -71.5t-117.5 -41t-126.5 -13.5q-53 0 -103 15.5t-92 45 t-74 70.5t-46 90z" />
<glyph unicode="&#x103;" horiz-adv-x="1030" d="M68 295q0 150 37.5 287t117.5 241.5t202 167t290 62.5q72 0 156.5 -13.5t164.5 -35.5l-127 -594q-16 -78 -23 -158t-7 -152q0 -29 1 -54.5t3 -47.5h-187l-28 176h-9q-23 -37 -58.5 -72.5t-78.5 -65.5t-91 -47.5t-99 -17.5q-135 0 -199.5 88t-64.5 236zM328 344 q0 -66 21.5 -114t78.5 -48q37 0 69.5 15.5t60.5 40t49.5 53t37.5 53.5l103 477q-23 10 -52.5 15.5t-58.5 5.5q-74 0 -131 -44t-97 -115t-60.5 -160t-20.5 -179zM424 1409l137 66q43 -121 172 -121q80 0 144.5 31.5t107.5 89.5l104 -56q-16 -49 -52 -97t-86 -85t-113.5 -59.5 t-131.5 -22.5q-127 0 -202.5 68.5t-79.5 185.5z" />
<glyph unicode="&#x104;" horiz-adv-x="1191" d="M-78 0l797 1444h196l187 -1444h-43q-66 -25 -110 -64.5t-44 -99.5q0 -70 78 -69q29 0 78 16l10 -127q-37 -27 -101.5 -47.5t-131.5 -20.5q-98 0 -146.5 45t-48.5 115q0 49 18.5 89t49 71t70.5 53.5t83 38.5h-30l-41 317h-418l-170 -317h-283zM492 543h290l-32 319l2 225 h-11l-82 -227z" />
<glyph unicode="&#x105;" horiz-adv-x="1030" d="M68 295q0 150 38.5 287t117.5 241.5t201 167t290 62.5q72 0 156.5 -13.5t164.5 -35.5l-127 -594q-16 -78 -23 -158t-7 -152q0 -29 1 -54.5t3 -47.5h-43q-63 -25 -106.5 -63.5t-43.5 -102.5q2 -63 76 -68q33 0 80 19l12 -127q-39 -27 -103.5 -48.5t-131.5 -21.5 q-98 0 -146.5 45t-48.5 115q0 53 22.5 96t60.5 76t86 55.5t97 36.5l-26 164h-9q-23 -37 -58.5 -72.5t-78.5 -65.5t-91 -47.5t-99 -17.5q-131 0 -197.5 88t-66.5 236zM328 344q0 -66 22.5 -114t77.5 -48q37 0 69.5 15.5t60.5 40t49.5 53t37.5 53.5l103 479q-23 10 -52.5 15.5 t-58.5 5.5q-76 -2 -132 -45t-96 -115t-60.5 -161t-20.5 -179z" />
<glyph unicode="&#x106;" horiz-adv-x="1099" d="M119 557q0 242 67.5 413t178 280.5t253 160.5t291.5 51q117 0 200 -17.5t130 -39.5l-104 -238q-41 23 -98.5 34t-145.5 11q-104 0 -194.5 -43t-156 -122.5t-103.5 -194.5t-38 -260q0 -174 87 -272.5t233 -98.5q92 0 152.5 19.5t113.5 48.5l4 -230q-137 -88 -336 -88 q-135 0 -235.5 45t-167 125t-99 186.5t-32.5 229.5zM763 1540l256 242h322l-12 -62l-353 -180h-213z" />
<glyph unicode="&#x107;" horiz-adv-x="843" d="M70 324q0 172 49 307t130 228t184.5 143.5t211.5 50.5q96 0 152.5 -18.5t101.5 -41.5l-94 -200q-39 23 -81 30.5t-91 7.5q-55 0 -107.5 -35.5t-94.5 -94t-66.5 -136.5t-24.5 -159q0 -104 45 -158.5t119 -54.5q61 0 113.5 19t93.5 44l47 -172q-66 -49 -153 -81t-173 -32 q-98 0 -166.5 29t-111.5 78t-63.5 112.5t-20.5 133.5zM545 1159l170 316h256l-12 -62l-273 -254h-141z" />
<glyph unicode="&#x108;" horiz-adv-x="1099" d="M119 557q0 242 67.5 413t178 280.5t253 160.5t291.5 51q117 0 200 -17.5t130 -39.5l-104 -238q-41 23 -98.5 34t-145.5 11q-104 0 -194.5 -43t-156 -122.5t-103.5 -194.5t-38 -260q0 -174 87 -272.5t233 -98.5q92 0 152.5 19.5t113.5 48.5l4 -230q-137 -88 -336 -88 q-135 0 -235.5 45t-167 125t-99 186.5t-32.5 229.5zM553 1511l18 82l297 189h179l206 -191l-16 -80h-180l-92 84l-27 70l-55 -68l-138 -86h-192z" />
<glyph unicode="&#x109;" horiz-adv-x="843" d="M70 324q0 172 49 307t130 228t184.5 143.5t211.5 50.5q96 0 152.5 -18.5t101.5 -41.5l-94 -200q-39 23 -81 30.5t-91 7.5q-55 0 -107.5 -35.5t-94.5 -94t-66.5 -136.5t-24.5 -159q0 -104 45 -158.5t119 -54.5q61 0 113.5 19t93.5 44l47 -172q-66 -49 -153 -81t-173 -32 q-98 0 -166.5 29t-111.5 78t-63.5 112.5t-20.5 133.5zM307 1126l320 373h168l137 -373h-197l-49 136l-8 100l-55 -100l-117 -136h-199z" />
<glyph unicode="&#x10c;" horiz-adv-x="1099" d="M119 557q0 242 67.5 413t178 280.5t253 160.5t291.5 51q117 0 200 -17.5t130 -39.5l-104 -238q-41 23 -98.5 34t-145.5 11q-104 0 -194.5 -43t-156 -122.5t-103.5 -194.5t-38 -260q0 -174 87 -272.5t233 -98.5q92 0 152.5 19.5t113.5 48.5l4 -230q-137 -88 -336 -88 q-135 0 -235.5 45t-167 125t-99 186.5t-32.5 229.5zM610 1702l17 80h188l84 -92l25 -62l51 60l131 94h201l-17 -82l-301 -191h-172z" />
<glyph unicode="&#x10d;" horiz-adv-x="843" d="M70 324q0 172 49 307t130 228t184.5 143.5t211.5 50.5q96 0 152.5 -18.5t101.5 -41.5l-94 -200q-39 23 -81 30.5t-91 7.5q-55 0 -107.5 -35.5t-94.5 -94t-66.5 -136.5t-24.5 -159q0 -104 45 -158.5t119 -54.5q61 0 113.5 19t93.5 44l47 -172q-66 -49 -153 -81t-173 -32 q-98 0 -166.5 29t-111.5 78t-63.5 112.5t-20.5 133.5zM388 1499h210l48 -135l10 -100l57 100l115 135h201l-320 -373h-178z" />
<glyph unicode="&#x10e;" horiz-adv-x="1269" d="M41 -2l303 1436q43 6 94 10t95.5 6t76.5 2q18 0 52 1t75 1q125 0 227.5 -31.5t175 -97t112.5 -168t40 -244.5q0 -90 -15 -193.5t-52 -207.5t-101.5 -200.5t-162 -170t-233.5 -119t-316 -45.5q-31 0 -62 1.5t-43 1.5q-41 2 -91 5l-100 6t-75 7zM356 233q8 -2 25.5 -3 t38 -2t39 -1h28.5q143 0 243.5 64.5t163 162t90.5 211t28 212.5q0 164 -69 245.5t-228 81.5q-41 0 -86 -2t-70 -6zM497 1702l17 80h188l84 -92l25 -62l51 60l131 94h201l-17 -82l-301 -191h-172z" />
<glyph unicode="&#x10f;" horiz-adv-x="1038" d="M76 309q0 143 39 276.5t109.5 237t172 165t224.5 61.5q59 0 98 -7.5t74 -23.5l88 416h252l-228 -1074q-18 -86 -26.5 -159.5t-8.5 -139.5v-31.5t2 -31.5h-172l-28 176h-8q-23 -37 -59 -72.5t-79 -65.5t-91 -47.5t-95 -17.5q-127 0 -195.5 90.5t-68.5 247.5zM336 328 q0 -59 26.5 -102.5t75.5 -43.5q31 0 62.5 15.5t59.5 40t51.5 53t37.5 53.5l99 463q-25 16 -57 23.5t-85 7.5q-61 0 -111.5 -42t-85 -113t-54 -163t-19.5 -192zM1106 1079q49 74 85 167t56 188h221q-16 -59 -49 -124t-72 -123.5t-78.5 -104.5t-66.5 -66z" />
<glyph unicode="&#x110;" horiz-adv-x="1310" d="M47 657l35 164h174l129 613q43 6 94 10t97.5 6t74.5 2q20 0 53 1t72 1q127 0 229.5 -31.5t175 -97t112.5 -168t40 -244.5q0 -90 -15 -193.5t-52 -207.5t-101.5 -200.5t-162 -170t-233.5 -119t-316 -45.5q-31 0 -59.5 1.5t-45.5 1.5q-37 2 -89 5t-102.5 6t-74.5 7l139 659 h-174zM397 233q8 -2 25.5 -3t38 -2t39 -1h28.5q143 0 243.5 64.5t163 162t90.5 211t28 212.5q0 164 -69 245.5t-230 81.5q-39 0 -84 -2t-70 -6l-80 -375h271l-35 -164h-271z" />
<glyph unicode="&#x111;" horiz-adv-x="1038" d="M76 309q0 143 39 276.5t109.5 237t172 165t224.5 61.5q59 0 98 -7.5t74 -23.5l26 131h-223l35 164h223l27 121h252l-27 -121h211l-35 -164h-211l-166 -789q-18 -86 -26.5 -159.5t-8.5 -139.5v-31.5t2 -31.5h-172l-28 176h-8q-23 -37 -59 -72.5t-79 -65.5t-91 -47.5 t-95 -17.5q-127 0 -195.5 90.5t-68.5 247.5zM336 328q0 -59 26.5 -102.5t75.5 -43.5q31 0 62.5 15.5t59.5 40t51.5 53t37.5 53.5l99 463q-25 16 -57 23.5t-85 7.5q-61 0 -111.5 -42t-85 -113t-54 -163t-19.5 -192z" />
<glyph unicode="&#x112;" horiz-adv-x="1030" d="M41 0l303 1434h266h541l-53 -250h-541l-72 -334h494l-55 -250h-490l-76 -350h551l-51 -250h-551h-266zM426 1571l37 182h670l-39 -182h-668z" />
<glyph unicode="&#x113;" horiz-adv-x="954" d="M70 340q0 164 51 296t134 224t187.5 142.5t208.5 50.5q84 0 144.5 -21.5t99.5 -59.5t57.5 -87t18.5 -105q0 -84 -43 -147.5t-120 -105.5t-185.5 -63.5t-237.5 -21.5q-16 0 -30.5 1t-30.5 1q-4 -25 -6.5 -44t-2.5 -35q0 -92 48.5 -137.5t136.5 -45.5q90 0 161.5 27 t108.5 53l53 -164q-63 -53 -163.5 -90t-233.5 -37q-166 0 -261 97.5t-95 271.5zM346 1159l39 189h630l-39 -189h-630zM360 604q57 0 122 4t120 19.5t92 45t37 81.5q0 31 -22.5 62.5t-94.5 31.5q-90 0 -156.5 -70t-97.5 -174z" />
<glyph unicode="&#x116;" horiz-adv-x="1030" d="M41 0l303 1434h266h541l-53 -250h-541l-72 -334h494l-55 -250h-490l-76 -350h551l-51 -250h-551h-266zM629 1634q0 63 49 94t121 31q68 0 119 -30.5t51 -94.5q0 -61 -49 -93t-121 -32t-121 31t-49 94z" />
<glyph unicode="&#x117;" horiz-adv-x="954" d="M70 340q0 164 51 296t134 224t187.5 142.5t208.5 50.5q84 0 144.5 -21.5t99.5 -59.5t57.5 -87t18.5 -105q0 -84 -43 -147.5t-120 -105.5t-185.5 -63.5t-237.5 -21.5q-16 0 -30.5 1t-30.5 1q-4 -25 -6.5 -44t-2.5 -35q0 -92 48.5 -137.5t136.5 -45.5q90 0 161.5 27 t108.5 53l53 -164q-63 -53 -163.5 -90t-233.5 -37q-166 0 -261 97.5t-95 271.5zM360 604q57 0 122 4t120 19.5t92 45t37 81.5q0 31 -22.5 62.5t-94.5 31.5q-90 0 -156.5 -70t-97.5 -174zM553 1315q0 68 44 104.5t112 36.5q66 0 112 -37t46 -104q0 -66 -46.5 -103.5 t-111.5 -37.5q-68 0 -112 37.5t-44 103.5z" />
<glyph unicode="&#x118;" horiz-adv-x="1030" d="M41 0l303 1434h266h541l-53 -250h-541l-72 -334h494l-55 -250h-490l-76 -350h551l-51 -250h-41q-66 -25 -109.5 -64.5t-43.5 -99.5q0 -70 77 -69q29 0 78 16l10 -127q-37 -27 -101 -47.5t-132 -20.5q-98 0 -146.5 45t-48.5 115q0 49 18.5 89t49.5 71t71 53.5t83 38.5 h-316h-266z" />
<glyph unicode="&#x119;" horiz-adv-x="954" d="M70 340q0 164 51 296t134 224t187.5 142.5t208.5 50.5q84 0 144.5 -21.5t99.5 -59.5t57.5 -87t18.5 -105q0 -88 -48.5 -153.5t-131 -107.5t-204.5 -61.5t-263 -13.5q-4 -25 -6.5 -44t-2.5 -35q0 -92 48.5 -137.5t136.5 -45.5q90 0 161.5 27t108.5 53l53 -164 q-66 -55 -159 -88q-53 -33 -88 -78t-35 -96q0 -23 8 -41t26.5 -26.5t47 -5t69.5 23.5l10 -127q-18 -12 -44.5 -25.5t-58.5 -23.5t-67.5 -17.5t-68.5 -7.5q-104 0 -146.5 45t-42.5 115t49.5 127t118.5 98h-16q-166 0 -261 97.5t-95 271.5zM360 604q57 0 122 4t120 19.5t92 45 t37 81.5q0 31 -22.5 62.5t-94.5 31.5q-90 0 -156.5 -69.5t-97.5 -174.5z" />
<glyph unicode="&#x11a;" horiz-adv-x="1030" d="M41 0l303 1434h266h541l-53 -250h-541l-72 -334h494l-55 -250h-490l-76 -350h551l-51 -250h-551h-266zM454 1702l17 80h188l84 -92l25 -62l51 60l131 94h201l-17 -82l-301 -191h-172z" />
<glyph unicode="&#x11b;" horiz-adv-x="954" d="M70 340q0 164 51 296t134 224t187.5 142.5t208.5 50.5q84 0 144.5 -21.5t99.5 -59.5t57.5 -87t18.5 -105q0 -84 -43 -147.5t-120 -105.5t-185.5 -63.5t-237.5 -21.5q-16 0 -30.5 1t-30.5 1q-4 -25 -6.5 -44t-2.5 -35q0 -92 48.5 -137.5t136.5 -45.5q90 0 161.5 27 t108.5 53l53 -164q-63 -53 -163.5 -90t-233.5 -37q-166 0 -261 97.5t-95 271.5zM360 604q57 0 122 4t120 19.5t92 45t37 81.5q0 31 -22.5 62.5t-94.5 31.5q-90 0 -156.5 -70t-97.5 -174zM420 1499h210l48 -135l10 -100l57 100l115 135h201l-320 -373h-178z" />
<glyph unicode="&#x11c;" horiz-adv-x="1198" d="M119 553q0 236 64.5 408t175 283.5t258 164.5t311.5 53q117 0 208 -19.5t138 -39.5l-107 -236q-43 20 -107.5 32.5t-156.5 12.5q-109 0 -201 -41t-159.5 -120.5t-105.5 -197.5t-38 -269q0 -170 80 -266.5t215 -96.5q100 0 176 51l58 273l-209 33l37 170h430l-135 -639 q-92 -72 -193.5 -105t-218.5 -33q-113 0 -208 39t-164.5 113t-108.5 182.5t-39 247.5zM584 1511l18 82l297 189h179l206 -191l-16 -80h-180l-92 84l-27 70l-55 -68l-138 -86h-192z" />
<glyph unicode="&#x11d;" horiz-adv-x="1034" d="M-20 -342l94 186q18 -8 42.5 -19t56.5 -22.5t74 -18.5t97 -7q102 0 162.5 63.5t87.5 173.5l39 160h-8q-47 -74 -128 -132t-184 -58q-111 0 -179 83t-68 222q0 158 45 296t125.5 241.5t191.5 163t244 59.5q125 0 218 -21.5t150 -48.5l-206 -979q-27 -121 -72 -204 t-107.5 -134t-143.5 -73.5t-179 -22.5q-72 0 -128.5 10t-99.5 24.5t-74.5 30t-49.5 27.5zM326 338q0 -66 27.5 -104.5t72.5 -38.5q35 0 72 21.5t70.5 54t60 72.5t43.5 75l88 399q-23 12 -57.5 16.5t-69.5 4.5q-66 0 -122 -39t-97 -106.5t-64.5 -159t-23.5 -195.5zM373 1126 l320 373h168l137 -373h-197l-49 136l-8 100l-55 -100l-117 -136h-199z" />
<glyph unicode="&#x11e;" horiz-adv-x="1198" d="M119 553q0 236 64.5 408t175 283.5t258 164.5t311.5 53q117 0 208 -19.5t138 -39.5l-107 -236q-43 20 -107.5 32.5t-156.5 12.5q-109 0 -201 -41t-159.5 -120.5t-105.5 -197.5t-38 -269q0 -170 80 -266.5t215 -96.5q100 0 176 51l58 273l-209 33l37 170h430l-135 -639 q-92 -72 -193.5 -105t-218.5 -33q-113 0 -208 39t-164.5 113t-108.5 182.5t-39 247.5zM596 1716l98 76q37 -53 90.5 -82t133.5 -29q113 0 188.5 31t132.5 80l100 -66q-35 -61 -82 -105t-102 -71.5t-117.5 -41t-126.5 -13.5q-53 0 -103 15.5t-92 45t-74 70.5t-46 90z" />
<glyph unicode="&#x11f;" horiz-adv-x="1034" d="M-20 -342l94 186q18 -8 42.5 -19t56.5 -22.5t74 -18.5t97 -7q102 0 162.5 63.5t87.5 173.5l39 160h-8q-47 -74 -128 -132t-184 -58q-111 0 -179 83t-68 222q0 158 45 296t125.5 241.5t191.5 163t244 59.5q125 0 218 -21.5t150 -48.5l-206 -979q-27 -121 -72 -204 t-107.5 -134t-143.5 -73.5t-179 -22.5q-72 0 -128.5 10t-99.5 24.5t-74.5 30t-49.5 27.5zM326 338q0 -66 27.5 -104.5t72.5 -38.5q35 0 72 21.5t70.5 54t60 72.5t43.5 75l88 399q-23 12 -57.5 16.5t-69.5 4.5q-66 0 -122 -39t-97 -106.5t-64.5 -159t-23.5 -195.5zM393 1409 l137 66q43 -121 172 -121q80 0 144.5 31.5t107.5 89.5l104 -56q-16 -49 -52 -97t-86 -85t-113.5 -59.5t-131.5 -22.5q-127 0 -202.5 68.5t-79.5 185.5z" />
<glyph unicode="&#x122;" horiz-adv-x="1198" d="M119 553q0 236 64.5 408t175 283.5t258 164.5t311.5 53q117 0 208 -19.5t138 -39.5l-107 -236q-43 20 -107.5 32.5t-156.5 12.5q-109 0 -201 -41t-159.5 -120.5t-105.5 -197.5t-38 -269q0 -170 80 -266.5t215 -96.5q100 0 176 51l58 273l-209 33l37 170h430l-135 -639 q-92 -72 -193.5 -105t-218.5 -33q-113 0 -208 39t-164.5 113t-108.5 182.5t-39 247.5zM426 -449q33 14 65 40t48 67q-39 6 -62.5 34t-23.5 77q0 35 13.5 61.5t35 45t48 28.5t55.5 10q72 0 101.5 -39t27.5 -104q0 -74 -29 -130.5t-71 -97.5t-87 -66.5t-78 -35.5z" />
<glyph unicode="&#x123;" horiz-adv-x="1034" d="M-20 -342l94 186q18 -8 42.5 -19t56.5 -22.5t74 -18.5t97 -7q102 0 162.5 63.5t87.5 173.5l39 160h-8q-47 -74 -128 -132t-184 -58q-111 0 -179 83t-68 222q0 158 45 296t125.5 241.5t191.5 163t244 59.5q125 0 218 -21.5t150 -48.5l-206 -979q-27 -121 -72 -204 t-107.5 -134t-143.5 -73.5t-179 -22.5q-72 0 -128.5 10t-99.5 24.5t-74.5 30t-49.5 27.5zM326 338q0 -66 27.5 -104.5t72.5 -38.5q35 0 72 21.5t70.5 54t60 72.5t43.5 75l88 399q-23 12 -57.5 16.5t-69.5 4.5q-66 0 -122 -39t-97 -106.5t-64.5 -159t-23.5 -195.5zM571 1271 q0 74 29 130.5t71 97.5t87 66.5t78 35.5l43 -110q-33 -14 -65 -40t-48 -67q39 -6 62.5 -34t23.5 -77q0 -35 -13.5 -61.5t-35 -45t-48 -28.5t-55.5 -10q-72 0 -101.5 39t-27.5 104z" />
<glyph unicode="&#x124;" horiz-adv-x="1277" d="M41 0l303 1434h266l-123 -584h498l123 584h266l-303 -1434h-266l127 600h-498l-127 -600h-266zM553 1511l18 82l297 189h179l206 -191l-16 -80h-180l-92 84l-27 70l-55 -68l-138 -86h-192z" />
<glyph unicode="&#x125;" horiz-adv-x="1081" d="M37 0l303 1434h252l-129 -590h8q27 33 64.5 69.5t84 67.5t100.5 51.5t118 20.5q98 0 152 -49.5t54 -174.5q0 -76 -24 -192l-135 -637h-252l123 582q20 90 20 149q0 53 -20.5 76.5t-63.5 23.5q-39 0 -82 -24.5t-82 -61t-70.5 -78.5t-47.5 -77l-121 -590h-252zM139 1511 l18 82l297 189h179l206 -191l-16 -80h-180l-92 84l-27 70l-55 -68l-138 -86h-192z" />
<glyph unicode="&#x126;" horiz-adv-x="1343" d="M74 0l223 1057h-143l34 168h144l45 209h266l-45 -209h498l45 209h266l-45 -209h147l-34 -168h-148l-223 -1057h-266l127 600h-498l-127 -600h-266zM520 850h498l43 207h-498z" />
<glyph unicode="&#x127;" horiz-adv-x="1081" d="M37 0l242 1149h-142l35 164h141l27 121h252l-27 -121h318l-35 -164h-320l-65 -305h8q27 33 64.5 69.5t84 67.5t100.5 51.5t118 20.5q98 0 152 -49.5t54 -174.5q0 -76 -24 -192l-135 -637h-252l123 582q20 90 20 149q0 53 -20.5 76.5t-63.5 23.5q-39 0 -82 -24.5t-82 -61 t-70.5 -78.5t-47.5 -77l-121 -590h-252z" />
<glyph unicode="&#x12a;" horiz-adv-x="569" d="M72 0l303 1434h264l-303 -1434h-264zM192 1571l37 182h670l-39 -182h-668z" />
<glyph unicode="&#x12b;" horiz-adv-x="524" d="M55 0l217 1024h252l-217 -1024h-252zM115 1159l39 189h630l-39 -189h-630z" />
<glyph unicode="&#x12e;" horiz-adv-x="569" d="M-84 -252q0 47 18.5 86t49 71t69.5 55.5t80 39.5h-61l303 1434h264l-303 -1434h-29q-53 -27 -91 -66.5t-38 -95.5q0 -33 19.5 -52t56.5 -19q33 0 80 18l10 -127q-37 -27 -101.5 -48.5t-131.5 -21.5q-98 0 -146.5 45t-48.5 115z" />
<glyph unicode="&#x12f;" horiz-adv-x="526" d="M-102 -262q0 41 17 80t48 72.5t71 62.5t85 47h-64l217 1024h252l-217 -1024h-20q-53 -31 -90 -77t-37 -95q0 -41 33.5 -61.5t117.5 20.5l13 -127q-18 -12 -45 -25.5t-59 -23.5t-67.5 -17.5t-68.5 -7.5q-109 0 -147.5 42t-38.5 110zM307 1315q0 68 44 104.5t112 36.5 q66 0 112 -37t46 -104q0 -66 -46.5 -103.5t-111.5 -37.5q-68 0 -112 37.5t-44 103.5z" />
<glyph unicode="&#x130;" horiz-adv-x="569" d="M72 0l303 1434h264l-303 -1434h-264zM375 1634q0 63 49 94t121 31q68 0 119 -30.5t51 -94.5q0 -61 -49 -93t-121 -32t-121 31t-49 94z" />
<glyph unicode="&#x131;" horiz-adv-x="524" d="M55 0l217 1024h252l-217 -1024h-252z" />
<glyph unicode="&#x134;" horiz-adv-x="663" d="M-104 23l102 229q47 -27 111 -27q43 0 71.5 17.5t48 48.5t31.5 73t25 93l204 977h267l-224 -1049q-18 -86 -46.5 -160.5t-76 -130t-118 -87.5t-170.5 -32q-57 0 -120.5 12.5t-104.5 35.5zM291 1511l18 82l297 189h179l206 -191l-16 -80h-180l-92 84l-27 70l-55 -68 l-138 -86h-192z" />
<glyph unicode="&#x135;" horiz-adv-x="499" d="M-229 -408l49 218q51 -4 88 9t62.5 41.5t43 72.5t29.5 100l209 991h254l-227 -1067q-39 -184 -131.5 -281.5t-249.5 -97.5q-63 0 -127 14zM86 1126l320 373h168l137 -373h-197l-49 136l-8 100l-55 -100l-117 -136h-199z" />
<glyph unicode="&#x136;" horiz-adv-x="1214" d="M41 0l303 1434h266l-135 -635l64 22l485 613h319l-516 -609l-122 -71l90 -80l311 -674h-297l-277 612h-96l-129 -612h-266zM282 -449q33 14 65 40t48 67q-39 6 -62.5 34t-23.5 77q0 35 13.5 61.5t35 45t48 28.5t55.5 10q72 0 101.5 -39t27.5 -104q0 -74 -29 -130.5 t-71 -97.5t-87 -66.5t-78 -35.5z" />
<glyph unicode="&#x137;" horiz-adv-x="952" d="M37 0l303 1434h252l-180 -846l75 26l289 410h281l-305 -412l-123 -77l92 -78l156 -457h-271l-147 424h-82l-88 -424h-252zM196 -449q33 14 65 40t48 67q-39 6 -62.5 34t-23.5 77q0 35 13.5 61.5t35 45t48 28.5t55.5 10q72 0 101.5 -39t27.5 -104q0 -74 -29 -130.5 t-71 -97.5t-87 -66.5t-78 -35.5z" />
<glyph unicode="&#x139;" horiz-adv-x="1013" d="M41 0l303 1434h266l-252 -1184h596l-51 -250h-596h-266zM380 1540l256 242h322l-12 -62l-353 -180h-213z" />
<glyph unicode="&#x13a;" horiz-adv-x="557" d="M68 135q0 47 12 109l252 1190h252l-240 -1131q-12 -59 1 -88t44 -29q57 0 109 23l-6 -182q-37 -23 -107 -37.5t-137 -14.5q-88 0 -134 34t-46 126zM356 1540l256 242h322l-12 -62l-353 -180h-213z" />
<glyph unicode="&#x13b;" horiz-adv-x="1013" d="M41 0l303 1434h266l-252 -1184h596l-51 -250h-596h-266zM231 -449q33 14 65 40t48 67q-39 6 -62.5 34t-23.5 77q0 35 13.5 61.5t35 45t48 28.5t55.5 10q72 0 101.5 -39t27.5 -104q0 -74 -29 -130.5t-71 -97.5t-87 -66.5t-78 -35.5z" />
<glyph unicode="&#x13c;" horiz-adv-x="557" d="M28 -449q33 14 65 40t48 67q-39 6 -62.5 34t-23.5 77q0 35 13.5 61.5t35 45t48 28.5t55.5 10q72 0 101.5 -39t27.5 -104q0 -74 -29 -130.5t-71 -97.5t-87 -66.5t-78 -35.5zM68 135q0 47 12 109l252 1190h252l-240 -1131q-12 -59 1 -88t44 -29q57 0 109 23l-6 -182 q-37 -23 -107 -37.5t-137 -14.5q-88 0 -134 34t-46 126z" />
<glyph unicode="&#x13d;" horiz-adv-x="1013" d="M41 0l303 1434h266l-252 -1184h596l-51 -250h-596h-266zM766 1079q49 74 85 167t56 188h221q-16 -59 -49 -124t-72 -123.5t-78.5 -104.5t-66.5 -66z" />
<glyph unicode="&#x13e;" horiz-adv-x="557" d="M68 135q0 47 12 109l252 1190h252l-240 -1131q-12 -59 1 -88t44 -29q57 0 109 23l-6 -182q-37 -23 -107 -37.5t-137 -14.5q-88 0 -134 34t-46 126zM566 1079q49 74 85 167t56 188h221q-16 -59 -49 -124t-72 -123.5t-78.5 -104.5t-66.5 -66z" />
<glyph unicode="&#x141;" horiz-adv-x="1024" d="M6 403l53 248l148 90l147 693h267l-109 -504l229 139l-55 -256l-227 -137l-90 -426h596l-52 -250h-589h-273l105 494z" />
<glyph unicode="&#x142;" horiz-adv-x="557" d="M-45 381l53 248l176 106l148 699h252l-111 -521l217 134l-55 -256l-215 -129l-76 -359q-12 -59 1 -88t44 -29q57 0 109 23l-6 -182q-37 -23 -107 -37.5t-137 -14.5q-88 0 -134 34t-46 126q0 47 12 109l51 243z" />
<glyph unicode="&#x143;" horiz-adv-x="1292" d="M41 0l307 1444h184l353 -766l63 -223h13l14 223l162 756h252l-308 -1444h-184l-350 760l-68 229h-10l-18 -229l-158 -750h-252zM745 1540l256 242h322l-12 -62l-353 -180h-213z" />
<glyph unicode="&#x144;" horiz-adv-x="1067" d="M29 0l217 1024h190l-10 -180h8q27 33 63 69.5t83 67.5t105.5 51.5t131.5 20.5q92 0 147.5 -50.5t55.5 -166.5q0 -31 -3 -66t-13 -76l-148 -694h-252l136 635q12 57 12 100q0 45 -18.5 70.5t-67.5 25.5q-37 0 -74 -18t-69.5 -49t-61.5 -69t-49 -77l-131 -618h-252z M608 1159l170 316h256l-12 -62l-273 -254h-141z" />
<glyph unicode="&#x145;" horiz-adv-x="1292" d="M41 0l307 1444h184l353 -766l63 -223h13l14 223l162 756h252l-308 -1444h-184l-350 760l-68 229h-10l-18 -229l-158 -750h-252zM344 -449q33 14 65 40t48 67q-39 6 -62.5 34t-23.5 77q0 35 13.5 61.5t35 45t48 28.5t55.5 10q72 0 101.5 -39t27.5 -104q0 -74 -29 -130.5 t-71 -97.5t-87 -66.5t-78 -35.5z" />
<glyph unicode="&#x146;" horiz-adv-x="1067" d="M29 0l217 1024h190l-10 -180h8q27 33 63 69.5t83 67.5t105.5 51.5t131.5 20.5q92 0 147.5 -50.5t55.5 -166.5q0 -31 -3 -66t-13 -76l-148 -694h-252l136 635q12 57 12 100q0 45 -18.5 70.5t-67.5 25.5q-37 0 -74 -18t-69.5 -49t-61.5 -69t-49 -77l-131 -618h-252z M235 -449q33 14 65 40t48 67q-39 6 -62.5 34t-23.5 77q0 35 13.5 61.5t35 45t48 28.5t55.5 10q72 0 101.5 -39t27.5 -104q0 -74 -29 -130.5t-71 -97.5t-87 -66.5t-78 -35.5z" />
<glyph unicode="&#x147;" horiz-adv-x="1292" d="M41 0l307 1444h184l353 -766l63 -223h13l14 223l162 756h252l-308 -1444h-184l-350 760l-68 229h-10l-18 -229l-158 -750h-252zM581 1702l17 80h188l84 -92l25 -62l51 60l131 94h201l-17 -82l-301 -191h-172z" />
<glyph unicode="&#x148;" horiz-adv-x="1067" d="M29 0l217 1024h190l-10 -180h8q27 33 63 69.5t83 67.5t105.5 51.5t131.5 20.5q92 0 147.5 -50.5t55.5 -166.5q0 -31 -3 -66t-13 -76l-148 -694h-252l136 635q12 57 12 100q0 45 -18.5 70.5t-67.5 25.5q-37 0 -74 -18t-69.5 -49t-61.5 -69t-49 -77l-131 -618h-252z M451 1499h210l48 -135l10 -100l57 100l115 135h201l-320 -373h-178z" />
<glyph unicode="&#x14c;" horiz-adv-x="1318" d="M119 537q0 190 52 359t148.5 295t232.5 198.5t304 72.5q111 0 200 -32.5t151.5 -101t97 -173t34.5 -248.5q0 -193 -52 -362.5t-147.5 -297.5t-227.5 -202t-291 -74q-242 0 -371 142.5t-131 423.5zM399 545q0 -147 56.5 -235.5t185.5 -88.5q94 0 171 56.5t132 151.5 t85 218t30 256q0 162 -63.5 235.5t-174.5 73.5q-92 0 -169 -53t-133 -144t-88 -213t-32 -257zM565 1571l37 182h670l-39 -182h-668z" />
<glyph unicode="&#x14d;" horiz-adv-x="1015" d="M70 332q0 162 46 295t122.5 227t178 146.5t212.5 52.5q98 0 165.5 -31t109.5 -82t60.5 -116.5t18.5 -135.5q0 -160 -45 -292t-121 -226t-176 -146.5t-211 -52.5q-96 0 -163.5 32t-111.5 83t-64.5 115.5t-20.5 130.5zM330 367q0 -184 133 -185q49 0 96 43t84 113t58.5 158 t21.5 176q0 82 -27.5 126t-103.5 44q-49 0 -96 -41t-84 -107.5t-59.5 -152.5t-22.5 -174zM351 1159l39 189h630l-39 -189h-630z" />
<glyph unicode="&#x150;" horiz-adv-x="1318" d="M119 537q0 190 52 359t148.5 295t232.5 198.5t304 72.5q111 0 200 -32.5t151.5 -101t97 -173t34.5 -248.5q0 -193 -52 -362.5t-147.5 -297.5t-227.5 -202t-291 -74q-242 0 -371 142.5t-131 423.5zM399 545q0 -147 56.5 -235.5t185.5 -88.5q94 0 171 56.5t132 151.5 t85 218t30 256q0 162 -63.5 235.5t-174.5 73.5q-92 0 -169 -53t-133 -144t-88 -213t-32 -257zM613 1518l162 223h258l-7 -33l-235 -190h-178zM922 1518l238 223h270l-6 -33l-318 -190h-184z" />
<glyph unicode="&#x151;" horiz-adv-x="1015" d="M70 332q0 162 46 295t122.5 227t178 146.5t212.5 52.5q98 0 165.5 -31t109.5 -82t60.5 -116.5t18.5 -135.5q0 -160 -45 -292t-121 -226t-176 -146.5t-211 -52.5q-96 0 -163.5 32t-111.5 83t-64.5 115.5t-20.5 130.5zM330 367q0 -184 133 -185q49 0 96 43t84 113t58.5 158 t21.5 176q0 82 -27.5 126t-103.5 44q-49 0 -96 -41t-84 -107.5t-59.5 -152.5t-22.5 -174zM426 1169l122 265h230l-6 -33l-195 -232h-151zM696 1169l199 265h245l-6 -33l-278 -232h-160z" />
<glyph unicode="&#x152;" horiz-adv-x="1796" d="M119 537q0 215 55 387t155.5 291.5t238 183t300.5 63.5q78 0 134.5 -8t107.5 -20h807l-53 -250h-541l-72 -334h494l-53 -250h-492l-74 -350h549l-51 -250h-817q-41 -14 -95.5 -21.5t-111.5 -7.5q-88 0 -174 27t-154.5 91.5t-110.5 174t-42 273.5zM399 545 q0 -53 10.5 -109.5t38 -104.5t77.5 -79t130 -31q57 0 101.5 7.5t105.5 31.5l191 901q-37 25 -87.5 38t-131.5 13q-96 0 -175 -49t-137.5 -137t-90.5 -211t-32 -270z" />
<glyph unicode="&#x153;" horiz-adv-x="1574" d="M70 332q0 162 46 295t123.5 227t179 146.5t212.5 52.5t181.5 -45t109.5 -123q61 72 148 120t202 48q84 0 144.5 -21.5t99 -59.5t57 -87t18.5 -105q0 -84 -43 -147.5t-119.5 -105.5t-185 -63.5t-237.5 -21.5q-16 0 -30.5 1t-31.5 1q-4 -25 -6 -44t-2 -35q0 -92 48 -137.5 t136 -45.5q90 0 162 27t109 53l53 -164q-63 -53 -163.5 -90t-233.5 -37q-59 0 -106.5 13.5t-82.5 37t-59.5 52t-38.5 59.5q-51 -70 -139.5 -116t-192.5 -46q-96 0 -163.5 32t-110.5 83t-63.5 115.5t-20.5 130.5zM330 367q0 -184 133 -185q49 0 96 43t84 113t58.5 158 t21.5 176q0 82 -27.5 126t-103.5 44q-49 0 -96 -41t-84 -107.5t-59.5 -152.5t-22.5 -174zM981 604q57 0 121.5 4t120 19.5t92.5 45t37 81.5q0 31 -22.5 62.5t-94.5 31.5q-90 0 -156.5 -70t-97.5 -174z" />
<glyph unicode="&#x154;" horiz-adv-x="1196" d="M41 0l301 1419q98 18 198.5 26.5t180.5 8.5q94 0 178 -22.5t145.5 -68.5t97.5 -119t36 -171q0 -113 -34 -195.5t-89.5 -139t-126 -88.5t-144.5 -42l80 -63l199 -545h-295l-197 561l-141 27l-123 -588h-266zM471 778h109q59 0 116.5 11.5t101.5 41t71.5 78.5t27.5 125 q0 70 -47 120t-152 50q-41 0 -76.5 -3t-60.5 -7zM602 1540l256 242h322l-12 -62l-353 -180h-213z" />
<glyph unicode="&#x155;" horiz-adv-x="702" d="M37 0l217 1024h186l2 -180h9q45 82 109.5 139t162.5 57q43 0 102 -16l-63 -219q-20 6 -38.5 10t-39.5 4q-84 0 -154.5 -54t-107.5 -126l-133 -639h-252zM405 1159l170 316h256l-12 -62l-273 -254h-141z" />
<glyph unicode="&#x156;" horiz-adv-x="1196" d="M41 0l301 1419q98 18 198.5 26.5t180.5 8.5q94 0 178 -22.5t145.5 -68.5t97.5 -119t36 -171q0 -113 -34 -195.5t-89.5 -139t-126 -88.5t-144.5 -42l80 -63l199 -545h-295l-197 561l-141 27l-123 -588h-266zM290 -449q33 14 65 40t48 67q-39 6 -62.5 34t-23.5 77 q0 35 13.5 61.5t35 45t48 28.5t55.5 10q72 0 101.5 -39t27.5 -104q0 -74 -29 -130.5t-71 -97.5t-87 -66.5t-78 -35.5zM471 778h109q59 0 116.5 11.5t101.5 41t71.5 78.5t27.5 125q0 70 -47 120t-152 50q-41 0 -76.5 -3t-60.5 -7z" />
<glyph unicode="&#x157;" horiz-adv-x="702" d="M14 -449q33 14 65 40t48 67q-39 6 -62.5 34t-23.5 77q0 35 13.5 61.5t35 45t48 28.5t55.5 10q72 0 101.5 -39t27.5 -104q0 -74 -29 -130.5t-71 -97.5t-87 -66.5t-78 -35.5zM37 0l217 1024h186l2 -180h9q45 82 109.5 139t162.5 57q43 0 102 -16l-63 -219q-20 6 -38.5 10 t-39.5 4q-84 0 -154.5 -54t-107.5 -126l-133 -639h-252z" />
<glyph unicode="&#x158;" horiz-adv-x="1196" d="M41 0l301 1419q98 18 198.5 26.5t180.5 8.5q94 0 178 -22.5t145.5 -68.5t97.5 -119t36 -171q0 -113 -34 -195.5t-89.5 -139t-126 -88.5t-144.5 -42l80 -63l199 -545h-295l-197 561l-141 27l-123 -588h-266zM448 1702l17 80h188l84 -92l25 -62l51 60l131 94h201l-17 -82 l-301 -191h-172zM471 778h109q59 0 116.5 11.5t101.5 41t71.5 78.5t27.5 125q0 70 -47 120t-152 50q-41 0 -76.5 -3t-60.5 -7z" />
<glyph unicode="&#x159;" horiz-adv-x="702" d="M37 0l217 1024h186l2 -180h9q45 82 109.5 139t162.5 57q43 0 102 -16l-63 -219q-20 6 -38.5 10t-39.5 4q-84 0 -154.5 -54t-107.5 -126l-133 -639h-252zM310 1499h210l48 -135l10 -100l57 100l115 135h201l-320 -373h-178z" />
<glyph unicode="&#x15a;" horiz-adv-x="1044" d="M-4 57l137 238q20 -12 53 -26.5t75 -27t91 -20.5t99 -8q57 0 108 9t89 30.5t59.5 54.5t21.5 82q0 55 -37 94t-93 74t-120.5 73t-121 89t-93.5 123.5t-37 177.5q0 119 42 203t114 137t168 77.5t207 24.5q59 0 118.5 -6t112.5 -17.5t98.5 -26.5t75.5 -34l-135 -233 q-39 25 -114.5 50.5t-168.5 25.5q-47 0 -92 -9.5t-79.5 -30t-55 -53t-20.5 -77.5q0 -59 36.5 -100.5t93 -77t121 -72.5t121 -86t93 -118t36.5 -169q0 -121 -42 -208t-118.5 -142t-184 -81t-238.5 -26q-72 0 -136.5 8.5t-120 20.5t-97.5 27.5t-66 29.5zM620 1540l256 242h322 l-12 -62l-353 -180h-213z" />
<glyph unicode="&#x15b;" horiz-adv-x="811" d="M-2 39l80 201q41 -23 105.5 -40.5t135.5 -17.5q72 0 110 28t40 85q0 41 -24.5 70.5t-62.5 56.5t-81 54.5t-81 63t-62.5 85t-24.5 118.5q0 68 26.5 125.5t75 98.5t117 63.5t154.5 22.5q119 0 196.5 -17.5t122.5 -44.5l-69 -192q-41 18 -99.5 30.5t-121.5 12.5 q-66 0 -104 -22.5t-38 -71.5q0 -33 24.5 -58.5t62.5 -52.5t81 -54.5t81 -66.5t62.5 -89t24.5 -120q0 -170 -110.5 -253t-294.5 -83q-104 0 -191.5 19.5t-134.5 48.5zM448 1159l170 316h256l-12 -62l-273 -254h-141z" />
<glyph unicode="&#x15c;" horiz-adv-x="1044" d="M-4 57l137 238q20 -12 53 -26.5t75 -27t91 -20.5t99 -8q57 0 108 9t89 30.5t59.5 54.5t21.5 82q0 55 -37 94t-93 74t-120.5 73t-121 89t-93.5 123.5t-37 177.5q0 119 42 203t114 137t168 77.5t207 24.5q59 0 118.5 -6t112.5 -17.5t98.5 -26.5t75.5 -34l-135 -233 q-39 25 -114.5 50.5t-168.5 25.5q-47 0 -92 -9.5t-79.5 -30t-55 -53t-20.5 -77.5q0 -59 36.5 -100.5t93 -77t121 -72.5t121 -86t93 -118t36.5 -169q0 -121 -42 -208t-118.5 -142t-184 -81t-238.5 -26q-72 0 -136.5 8.5t-120 20.5t-97.5 27.5t-66 29.5zM440 1511l18 82 l297 189h179l206 -191l-16 -80h-180l-92 84l-27 70l-55 -68l-138 -86h-192z" />
<glyph unicode="&#x15d;" horiz-adv-x="811" d="M-2 39l80 201q41 -23 105.5 -40.5t135.5 -17.5q72 0 110 28t40 85q0 41 -24.5 70.5t-62.5 56.5t-81 54.5t-81 63t-62.5 85t-24.5 118.5q0 68 26.5 125.5t75 98.5t117 63.5t154.5 22.5q119 0 196.5 -17.5t122.5 -44.5l-69 -192q-41 18 -99.5 30.5t-121.5 12.5 q-66 0 -104 -22.5t-38 -71.5q0 -33 24.5 -58.5t62.5 -52.5t81 -54.5t81 -66.5t62.5 -89t24.5 -120q0 -170 -110.5 -253t-294.5 -83q-104 0 -191.5 19.5t-134.5 48.5zM229 1126l320 373h168l137 -373h-197l-49 136l-8 100l-55 -100l-117 -136h-199z" />
<glyph unicode="&#x15e;" horiz-adv-x="1044" d="M35 57l137 242q20 -12 53 -26.5t75 -27t91 -20.5t98 -8q57 0 108.5 9.5t89.5 28.5t59.5 52t21.5 82q0 55 -37 94t-93 74t-120.5 73t-121 89t-93.5 123.5t-37 177.5q0 119 42 203t114 137t168 77.5t207 24.5q59 0 118.5 -6t112.5 -17.5t98 -26.5t76 -34l-135 -233 q-39 25 -114.5 50.5t-168.5 25.5q-47 0 -92 -9.5t-79.5 -30t-55 -53t-20.5 -77.5q0 -59 36.5 -100.5t93 -77t121 -72.5t121 -86t93 -118t36.5 -169q0 -111 -34.5 -191.5t-98 -136t-153.5 -86t-201 -39.5l-47 -63q70 -4 106.5 -42t36.5 -97q0 -53 -23.5 -92t-63.5 -65 t-94 -38t-116 -12q-78 0 -157 18l40 99q104 -10 143.5 12t39.5 51q0 35 -41 48t-119 11l131 168q-121 8 -216 33t-136 51z" />
<glyph unicode="&#x15f;" horiz-adv-x="811" d="M-2 39l80 201q41 -23 105.5 -40.5t135.5 -17.5q72 0 110 28t40 85q0 41 -24.5 70.5t-62.5 56.5t-81 54.5t-81 63t-62.5 85t-24.5 118.5q0 68 26.5 125.5t75 98.5t117 63.5t154.5 22.5q119 0 196.5 -17.5t122.5 -44.5l-69 -192q-41 18 -99.5 30.5t-121.5 12.5 q-66 0 -104 -22.5t-38 -71.5q0 -33 24.5 -58.5t62.5 -52.5t81 -54.5t81 -66.5t62.5 -89t24.5 -120q0 -150 -86 -231.5t-233 -98.5l-50 -65q70 -4 107 -42t37 -97q0 -53 -23.5 -92t-63.5 -65t-94.5 -38t-115.5 -12q-78 0 -158 18l41 99q104 -10 143 12t39 51q0 35 -41 48 t-118 11l133 170q-80 6 -144.5 22.5t-103.5 41.5z" />
<glyph unicode="&#x160;" horiz-adv-x="1044" d="M-4 57l137 238q20 -12 53 -26.5t75 -27t91 -20.5t99 -8q57 0 108 9t89 30.5t59.5 54.5t21.5 82q0 55 -37 94t-93 74t-120.5 73t-121 89t-93.5 123.5t-37 177.5q0 119 42 203t114 137t168 77.5t207 24.5q59 0 118.5 -6t112.5 -17.5t98.5 -26.5t75.5 -34l-135 -233 q-39 25 -114.5 50.5t-168.5 25.5q-47 0 -92 -9.5t-79.5 -30t-55 -53t-20.5 -77.5q0 -59 36.5 -100.5t93 -77t121 -72.5t121 -86t93 -118t36.5 -169q0 -121 -42 -208t-118.5 -142t-184 -81t-238.5 -26q-72 0 -136.5 8.5t-120 20.5t-97.5 27.5t-66 29.5zM497 1702l17 80h188 l84 -92l25 -62l51 60l131 94h201l-17 -82l-301 -191h-172z" />
<glyph unicode="&#x161;" horiz-adv-x="811" d="M-2 39l80 201q41 -23 105.5 -40.5t135.5 -17.5q72 0 110 28t40 85q0 41 -24.5 70.5t-62.5 56.5t-81 54.5t-81 63t-62.5 85t-24.5 118.5q0 68 26.5 125.5t75 98.5t117 63.5t154.5 22.5q119 0 196.5 -17.5t122.5 -44.5l-69 -192q-41 18 -99.5 30.5t-121.5 12.5 q-66 0 -104 -22.5t-38 -71.5q0 -33 24.5 -58.5t62.5 -52.5t81 -54.5t81 -66.5t62.5 -89t24.5 -120q0 -170 -110.5 -253t-294.5 -83q-104 0 -191.5 19.5t-134.5 48.5zM310 1499h210l48 -135l10 -100l57 100l115 135h201l-320 -373h-178z" />
<glyph unicode="&#x162;" horiz-adv-x="1120" d="M186 -418l41 99q104 -10 143.5 12t39.5 51q0 66 -160 61l153 195h-59l250 1184h-397l53 250h1059l-52 -250h-397l-252 -1184h-43l-67 -88q70 -4 106.5 -43t36.5 -98q0 -53 -23.5 -92t-63.5 -65t-94 -38t-116 -12q-78 0 -158 18z" />
<glyph unicode="&#x163;" horiz-adv-x="655" d="M0 -418l41 99q104 -10 143 12t39 51q0 66 -160 61l142 183q-115 39 -115 178q0 20 3 42.5t7 47.5l119 557h-137l49 211h133l41 193l268 75l-57 -268h240l-47 -211h-238l-100 -463q-12 -55 -13 -90q0 -45 20.5 -61.5t61.5 -16.5q39 0 71 8.5t67 26.5v-188 q-35 -23 -97.5 -37.5t-122.5 -18.5l-47 -61q70 -4 107 -43t37 -98q0 -53 -23.5 -92t-63.5 -65t-94.5 -38t-115.5 -12q-78 0 -158 18z" />
<glyph unicode="&#x164;" horiz-adv-x="1120" d="M197 1184l53 250h1059l-52 -250h-397l-252 -1184h-264l250 1184h-397zM493 1702l17 80h188l84 -92l25 -62l51 60l131 94h201l-17 -82l-301 -191h-172z" />
<glyph unicode="&#x165;" horiz-adv-x="655" d="M82 813l49 211h133l41 193l268 75l-57 -268h240l-47 -211h-238l-100 -463q-12 -55 -13 -90q0 -45 20.5 -61.5t61.5 -16.5q39 0 71 8.5t67 26.5v-188q-23 -12 -54.5 -23.5t-68.5 -18.5t-76 -11.5t-72 -4.5q-104 0 -160.5 48.5t-56.5 146.5q0 20 3 42.5t7 47.5l119 557 h-137zM586 1126q49 74 85 167t56 188h221q-16 -59 -49 -124t-72 -123.5t-78.5 -104.5t-66.5 -66z" />
<glyph unicode="&#x16a;" horiz-adv-x="1232" d="M129 356q0 41 5 84t16 90l192 904h264l-188 -902q-16 -78 -17 -126q0 -98 51.5 -139.5t149.5 -41.5q123 0 190.5 72t102.5 231l192 906h250l-194 -926q-31 -147 -80 -248.5t-119 -165t-164 -91.5t-217 -28q-119 0 -200.5 28t-134 79t-76 120.5t-23.5 153.5zM524 1571 l37 182h670l-39 -182h-668z" />
<glyph unicode="&#x16b;" horiz-adv-x="1048" d="M80 197q0 76 20 165l142 662h252l-134 -633q-12 -61 -12 -102t16.5 -63.5t57.5 -22.5q35 0 70.5 17.5t68.5 45t60.5 61t46.5 66.5l131 631h252l-129 -614q-10 -41 -17.5 -96.5t-13.5 -114t-8 -111.5t0 -88h-203l-10 184h-8q-29 -39 -67 -76.5t-84 -68.5t-100.5 -49.5 t-115.5 -18.5q-96 0 -155.5 48.5t-59.5 177.5zM353 1159l39 189h630l-39 -189h-630z" />
<glyph unicode="&#x16c;" horiz-adv-x="1232" d="M129 356q0 41 5 84t16 90l192 904h264l-188 -902q-16 -78 -17 -126q0 -98 51.5 -139.5t149.5 -41.5q123 0 190.5 72t102.5 231l192 906h250l-194 -926q-31 -147 -80 -248.5t-119 -165t-164 -91.5t-217 -28q-119 0 -200.5 28t-134 79t-76 120.5t-23.5 153.5zM516 1716 l98 76q37 -53 90.5 -82t133.5 -29q113 0 188.5 31t132.5 80l100 -66q-35 -61 -82 -105t-102 -71.5t-117.5 -41t-126.5 -13.5q-53 0 -103 15.5t-92 45t-74 70.5t-46 90z" />
<glyph unicode="&#x16d;" horiz-adv-x="1048" d="M80 197q0 76 20 165l142 662h252l-134 -633q-12 -61 -12 -102t16.5 -63.5t57.5 -22.5q35 0 70.5 17.5t68.5 45t60.5 61t46.5 66.5l131 631h252l-129 -614q-10 -41 -17.5 -96.5t-13.5 -114t-8 -111.5t0 -88h-203l-10 184h-8q-29 -39 -67 -76.5t-84 -68.5t-100.5 -49.5 t-115.5 -18.5q-96 0 -155.5 48.5t-59.5 177.5zM383 1409l137 66q43 -121 172 -121q80 0 144.5 31.5t107.5 89.5l104 -56q-16 -49 -52 -97t-86 -85t-113.5 -59.5t-131.5 -22.5q-127 0 -202.5 68.5t-79.5 185.5z" />
<glyph unicode="&#x16e;" horiz-adv-x="1232" d="M129 356q0 41 5 84t16 90l192 904h264l-188 -902q-16 -78 -17 -126q0 -98 51.5 -139.5t149.5 -41.5q123 0 190.5 72t102.5 231l192 906h250l-194 -926q-31 -147 -80 -248.5t-119 -165t-164 -91.5t-217 -28q-119 0 -200.5 28t-134 79t-76 120.5t-23.5 153.5zM619 1581 q0 37 12 71t42 59.5t80 39.5t128 14q143 0 202.5 -49t61.5 -135q-2 -37 -15.5 -69.5t-44 -56t-80.5 -38t-124 -16.5q-145 2 -203.5 52t-58.5 128zM791 1581q0 -63 90 -63q51 0 71.5 16t20.5 47q0 68 -92 68q-90 0 -90 -68z" />
<glyph unicode="&#x16f;" horiz-adv-x="1048" d="M80 197q0 76 20 165l142 662h252l-134 -633q-12 -61 -12 -102t16.5 -63.5t57.5 -22.5q35 0 70.5 17.5t68.5 45t60.5 61t46.5 66.5l131 631h252l-129 -614q-10 -41 -17.5 -96.5t-13.5 -114t-8 -111.5t0 -88h-203l-10 184h-8q-29 -39 -67 -76.5t-84 -68.5t-100.5 -49.5 t-115.5 -18.5q-96 0 -155.5 48.5t-59.5 177.5zM446 1325q0 86 58.5 141.5t169.5 55.5q104 0 165.5 -50.5t61.5 -146.5q0 -80 -60.5 -136t-166.5 -56q-109 0 -168.5 52t-59.5 140zM594 1325q0 -33 23.5 -50.5t56.5 -17.5q35 0 57.5 16.5t22.5 51.5t-24 52.5t-56 17.5 q-33 0 -56.5 -16.5t-23.5 -53.5z" />
<glyph unicode="&#x170;" horiz-adv-x="1232" d="M129 356q0 41 5 84t16 90l192 904h264l-188 -902q-16 -78 -17 -126q0 -98 51.5 -139.5t149.5 -41.5q123 0 190.5 72t102.5 231l192 906h250l-194 -926q-31 -147 -80 -248.5t-119 -165t-164 -91.5t-217 -28q-119 0 -200.5 28t-134 79t-76 120.5t-23.5 153.5zM561 1518 l162 223h258l-7 -33l-235 -190h-178zM870 1518l238 223h270l-6 -33l-318 -190h-184z" />
<glyph unicode="&#x171;" horiz-adv-x="1048" d="M80 197q0 76 20 165l142 662h252l-134 -633q-12 -61 -12 -102t16.5 -63.5t57.5 -22.5q35 0 70.5 17.5t68.5 45t60.5 61t46.5 66.5l131 631h252l-129 -614q-10 -41 -17.5 -96.5t-13.5 -114t-8 -111.5t0 -88h-203l-10 184h-8q-29 -39 -67 -76.5t-84 -68.5t-100.5 -49.5 t-115.5 -18.5q-96 0 -155.5 48.5t-59.5 177.5zM435 1169l122 265h230l-6 -33l-195 -232h-151zM705 1169l199 265h245l-6 -33l-278 -232h-160z" />
<glyph unicode="&#x172;" horiz-adv-x="1232" d="M129 356q0 41 5 84t16 90l192 904h264l-188 -902q-16 -78 -17 -126q0 -98 51.5 -139.5t149.5 -41.5q123 0 190.5 72t102.5 231l192 906h250l-194 -926q-47 -221 -132 -340t-227 -164q-47 -29 -79.5 -67.5t-32.5 -92.5q0 -35 20.5 -56t57.5 -21q33 0 77 16l13 -127 q-39 -27 -103.5 -48.5t-132.5 -21.5q-98 0 -146 50.5t-48 119.5q0 72 41 126.5t100 92.5q-115 2 -196 31t-131 79t-72.5 119.5t-22.5 151.5z" />
<glyph unicode="&#x173;" horiz-adv-x="1048" d="M80 197q0 76 20 165l142 662h252l-134 -633q-14 -61 -14 -102t17.5 -63.5t58.5 -22.5q35 0 70.5 17.5t68.5 45t60.5 61t46.5 66.5l131 631h252l-129 -614q-8 -41 -16.5 -96.5t-14.5 -114t-8 -111.5t0 -88h-35q-63 -25 -106.5 -70t-43.5 -98q0 -23 8.5 -40t26 -25.5t46 -4 t71.5 24.5l10 -127q-18 -12 -45 -25.5t-58.5 -23.5t-67.5 -17.5t-68 -7.5q-109 0 -149 42t-40 110q0 47 20.5 89t54.5 76t79 60.5t94 42.5l-10 178h-8q-29 -39 -67 -76.5t-84 -68.5t-100.5 -49.5t-115.5 -18.5q-102 0 -157.5 50.5t-57.5 175.5z" />
<glyph unicode="&#x178;" horiz-adv-x="1165" d="M217 1434h295l133 -539l-4 -152h8l64 156l358 535h305l-637 -899l-112 -535h-265l111 532zM492 1634q0 59 41 89t106 30q66 0 107 -29.5t41 -89.5q0 -59 -41 -87.5t-107 -28.5t-106.5 28.5t-40.5 87.5zM910 1634q0 59 41 89t106 30q66 0 107 -29.5t41 -89.5 q0 -59 -41 -87.5t-107 -28.5t-106.5 28.5t-40.5 87.5z" />
<glyph unicode="&#x179;" horiz-adv-x="1060" d="M-23 0l54 250l737 852l119 82h-658l52 250h944l-51 -250l-742 -858l-115 -76h658l-53 -250h-945zM612 1540l256 242h322l-12 -62l-353 -180h-213z" />
<glyph unicode="&#x17a;" horiz-adv-x="890" d="M-27 0l45 221l461 490l146 92h-484l49 221h762l-47 -221l-471 -498l-131 -84h479l-47 -221h-762zM489 1159l170 316h256l-12 -62l-273 -254h-141z" />
<glyph unicode="&#x17b;" horiz-adv-x="1060" d="M-23 0l54 250l737 852l119 82h-658l52 250h944l-51 -250l-742 -858l-115 -76h658l-53 -250h-945zM629 1634q0 63 49 94t121 31q68 0 119 -30.5t51 -94.5q0 -61 -49 -93t-121 -32t-121 31t-49 94z" />
<glyph unicode="&#x17c;" horiz-adv-x="890" d="M-27 0l45 221l461 490l146 92h-484l49 221h762l-47 -221l-471 -498l-131 -84h479l-47 -221h-762zM432 1315q0 68 44 104.5t112 36.5q66 0 112 -37t46 -104q0 -66 -46.5 -103.5t-111.5 -37.5q-68 0 -112 37.5t-44 103.5z" />
<glyph unicode="&#x17d;" horiz-adv-x="1060" d="M-23 0l54 250l737 852l119 82h-658l52 250h944l-51 -250l-742 -858l-115 -76h658l-53 -250h-945zM458 1702l17 80h188l84 -92l25 -62l51 60l131 94h201l-17 -82l-301 -191h-172z" />
<glyph unicode="&#x17e;" horiz-adv-x="890" d="M-27 0l45 221l461 490l146 92h-484l49 221h762l-47 -221l-471 -498l-131 -84h479l-47 -221h-762zM342 1499h210l48 -135l10 -100l57 100l115 135h201l-320 -373h-178z" />
<glyph unicode="&#x17f;" horiz-adv-x="585" d="M-264 -369l69 187q35 -14 70 -18.5t88 -4.5q66 0 101.5 51.5t52.5 153.5l135 813h-158l41 211h156l12 57q41 195 137.5 282t245.5 87q88 0 145.5 -13.5t104.5 -35.5l-92 -184q-41 16 -74 19t-63 3q-82 -2 -115 -59.5t-49 -155.5l-176 -1024q-18 -104 -43 -184t-67 -133.5 t-103.5 -81t-151.5 -27.5q-74 0 -144.5 11.5t-121.5 45.5z" />
<glyph unicode="&#x192;" d="M33 -377l43 215q47 -20 90 -29.5t100 -9.5q74 0 115 50.5t59 166.5l125 783h-159v225h196l23 137q12 76 33.5 132.5t59.5 94t97 56t148 18.5q33 0 74.5 -5t84.5 -14t84 -20.5t72 -25.5l-66 -199q-100 39 -194 39q-66 0 -91.5 -31.5t-37.5 -113.5l-10 -68h243v-225h-282 l-146 -869q-12 -76 -35.5 -140t-65.5 -112.5t-104.5 -76t-152.5 -27.5q-29 0 -71 4t-85 10t-83 15.5t-64 19.5z" />
<glyph unicode="&#x1f4;" horiz-adv-x="1198" d="M119 553q0 236 64.5 408t175 283.5t258 164.5t311.5 53q117 0 208 -19.5t138 -39.5l-107 -236q-43 20 -107.5 32.5t-156.5 12.5q-109 0 -201 -41t-159.5 -120.5t-105.5 -197.5t-38 -269q0 -170 80 -266.5t215 -96.5q100 0 176 51l58 273l-209 33l37 170h430l-135 -639 q-92 -72 -193.5 -105t-218.5 -33q-113 0 -208 39t-164.5 113t-108.5 182.5t-39 247.5zM794 1540l256 242h322l-12 -62l-353 -180h-213z" />
<glyph unicode="&#x1f5;" horiz-adv-x="1034" d="M-20 -342l94 186q18 -8 42.5 -19t56.5 -22.5t74 -18.5t97 -7q102 0 162.5 63.5t87.5 173.5l39 160h-8q-47 -74 -128 -132t-184 -58q-111 0 -179 83t-68 222q0 158 45 296t125.5 241.5t191.5 163t244 59.5q125 0 218 -21.5t150 -48.5l-206 -979q-27 -121 -72 -204 t-107.5 -134t-143.5 -73.5t-179 -22.5q-72 0 -128.5 10t-99.5 24.5t-74.5 30t-49.5 27.5zM326 338q0 -66 27.5 -104.5t72.5 -38.5q35 0 72 21.5t70.5 54t60 72.5t43.5 75l88 399q-23 12 -57.5 16.5t-69.5 4.5q-66 0 -122 -39t-97 -106.5t-64.5 -159t-23.5 -195.5zM586 1159 l170 316h256l-12 -62l-273 -254h-141z" />
<glyph unicode="&#x218;" horiz-adv-x="1044" d="M35 57l137 238q20 -12 53 -26.5t75 -27t91 -20.5t99 -8q57 0 108 9t89 30.5t59.5 54.5t21.5 82q0 55 -37 94t-93 74t-120.5 73t-121 89t-93.5 123.5t-37 177.5q0 119 42 203t114 137t168 77.5t207 24.5q59 0 118.5 -6t112.5 -17.5t98.5 -26.5t75.5 -34l-135 -233 q-39 25 -114.5 50.5t-168.5 25.5q-47 0 -92 -9.5t-79.5 -30t-55 -53t-20.5 -77.5q0 -59 36.5 -100.5t93 -77t121 -72.5t121 -86t93 -118t36.5 -169q0 -121 -42 -208t-118.5 -142t-184 -81t-238.5 -26q-72 0 -136.5 8.5t-120 20.5t-97.5 27.5t-66 29.5zM247 -449q33 14 65 40 t48 67q-39 6 -62.5 34t-23.5 77q0 35 13.5 61.5t35 45t48 28.5t55.5 10q72 0 101.5 -39t27.5 -104q0 -74 -29 -130.5t-71 -97.5t-87 -66.5t-78 -35.5z" />
<glyph unicode="&#x219;" horiz-adv-x="811" d="M-2 39l80 201q41 -23 105.5 -40.5t135.5 -17.5q72 0 110 28t40 85q0 41 -24.5 70.5t-62.5 56.5t-81 54.5t-81 63t-62.5 85t-24.5 118.5q0 68 26.5 125.5t75 98.5t117 63.5t154.5 22.5q119 0 196.5 -17.5t122.5 -44.5l-69 -192q-41 18 -99.5 30.5t-121.5 12.5 q-66 0 -104 -22.5t-38 -71.5q0 -33 24.5 -58.5t62.5 -52.5t81 -54.5t81 -66.5t62.5 -89t24.5 -120q0 -170 -110.5 -253t-294.5 -83q-104 0 -191.5 19.5t-134.5 48.5zM96 -449q33 14 65 40t48 67q-39 6 -62.5 34t-23.5 77q0 35 13.5 61.5t35 45t48 28.5t55.5 10 q72 0 101.5 -39t27.5 -104q0 -74 -29 -130.5t-71 -97.5t-87 -66.5t-78 -35.5z" />
<glyph unicode="&#x21a;" horiz-adv-x="1120" d="M197 1184l53 250h1059l-52 -250h-397l-252 -1184h-264l250 1184h-397zM243 -449q33 14 65 40t48 67q-39 6 -62.5 34t-23.5 77q0 35 13.5 61.5t35 45t48 28.5t55.5 10q72 0 101.5 -39t27.5 -104q0 -74 -29 -130.5t-71 -97.5t-87 -66.5t-78 -35.5z" />
<glyph unicode="&#x21b;" horiz-adv-x="655" d="M71 -449q33 14 65 40t48 67q-39 6 -62.5 34t-23.5 77q0 35 13.5 61.5t35 45t48 28.5t55.5 10q72 0 101.5 -39t27.5 -104q0 -74 -29 -130.5t-71 -97.5t-87 -66.5t-78 -35.5zM82 813l49 211h133l41 193l268 75l-57 -268h240l-47 -211h-238l-100 -463q-12 -55 -13 -90 q0 -45 20.5 -61.5t61.5 -16.5q39 0 71 8.5t67 26.5v-188q-23 -12 -54.5 -23.5t-68.5 -18.5t-76 -11.5t-72 -4.5q-104 0 -160.5 48.5t-56.5 146.5q0 20 3 42.5t7 47.5l119 557h-137z" />
<glyph unicode="&#x237;" horiz-adv-x="499" d="M-229 -408l49 218q51 -4 88 9t62.5 41.5t43 72.5t29.5 100l209 991h254l-227 -1067q-39 -184 -131.5 -281.5t-249.5 -97.5q-63 0 -127 14z" />
<glyph unicode="&#x2bc;" horiz-adv-x="565" d="M303 1061q43 18 78.5 49t50.5 78q-37 4 -61.5 34t-22.5 83q0 37 15.5 64.5t38 46t49 27.5t50.5 9q72 0 103 -37t31 -100q0 -84 -32 -147.5t-78 -108.5t-96 -71.5t-87 -39.5z" />
<glyph unicode="&#x2c6;" horiz-adv-x="815" d="M264 1126l320 373h168l137 -373h-197l-49 136l-8 100l-55 -100l-117 -136h-199z" />
<glyph unicode="&#x2c7;" horiz-adv-x="854" d="M322 1499h210l48 -135l10 -100l57 100l115 135h201l-320 -373h-178z" />
<glyph unicode="&#x2d8;" horiz-adv-x="892" d="M336 1409l137 66q43 -121 172 -121q80 0 144.5 31.5t107.5 89.5l104 -56q-16 -49 -52 -97t-86 -85t-113.5 -59.5t-131.5 -22.5q-127 0 -202.5 68.5t-79.5 185.5z" />
<glyph unicode="&#x2d9;" horiz-adv-x="595" d="M348 1315q0 68 44 104.5t112 36.5q66 0 112 -37t46 -104q0 -66 -46.5 -103.5t-111.5 -37.5q-68 0 -112 37.5t-44 103.5z" />
<glyph unicode="&#x2da;" horiz-adv-x="753" d="M354 1325q0 86 58.5 141.5t169.5 55.5q104 0 165.5 -50.5t61.5 -146.5q0 -80 -60.5 -136t-166.5 -56q-109 0 -168.5 52t-59.5 140zM502 1325q0 -33 23.5 -50.5t56.5 -17.5q35 0 57.5 16.5t22.5 51.5t-24 52.5t-56 17.5q-33 0 -56.5 -16.5t-23.5 -53.5z" />
<glyph unicode="&#x2db;" horiz-adv-x="780" d="M76 -244q0 55 22.5 97.5t59.5 75t83 55t93 36.5h192q-76 -25 -132 -67.5t-56 -108.5q0 -70 78 -69q29 0 78 16l10 -127q-37 -27 -101.5 -47t-132.5 -20q-98 0 -146 45t-48 114z" />
<glyph unicode="&#x2dc;" horiz-adv-x="714" d="M258 1348q72 76 126 104.5t99 28.5q37 0 69 -14.5t63.5 -31t63.5 -30.5t69 -14q29 0 62.5 12t74.5 43l8 -143q-66 -66 -117 -91.5t-94 -25.5q-37 0 -69.5 13t-65.5 29.5t-65.5 30t-69.5 13.5q-31 0 -68 -12.5t-78 -45.5z" />
<glyph unicode="&#x2dd;" horiz-adv-x="950" d="M322 1169l122 265h230l-6 -33l-195 -232h-151zM592 1169l199 265h245l-6 -33l-278 -232h-160z" />
<glyph unicode="&#x301;" horiz-adv-x="4" d="M-346 1159l170 316h256l-12 -62l-273 -254h-141z" />
<glyph unicode="&#x394;" horiz-adv-x="1206" d="M2 0v145l494 1299h161l498 -1299v-145h-1153zM299 238h553l-227 610l-50 205h-8l-51 -207z" />
<glyph unicode="&#x3a9;" horiz-adv-x="1601" d="M150 0v225h215l174 -26v57l-95 18q-61 29 -114.5 76t-93 114.5t-62 155t-22.5 193.5q0 150 48 269.5t137 203.5t214 130t276 46q160 0 286 -48t212 -134t132 -207t46 -268q0 -106 -24.5 -191.5t-64.5 -151t-92 -111.5t-108 -75l-100 -20v-57l174 26h217v-225h-614v416 q53 8 109.5 34.5t102.5 72.5t75.5 115t29.5 165q0 76 -20.5 149.5t-65.5 132t-117.5 93t-179.5 34.5q-182 0 -280.5 -104t-98.5 -311q0 -92 29 -161t74 -115t101.5 -71.5t113.5 -33.5v-416h-614z" />
<glyph unicode="&#x3bc;" horiz-adv-x="1110" d="M-70 -410l303 1434h254l-120 -559q-14 -63 -15 -121q0 -72 33 -109.5t104 -37.5q92 0 156 49t105 133l139 645h252l-148 -690q-16 -84 -29.5 -169t-11.5 -165h-184l-35 152h-6q-49 -72 -124 -124.5t-177 -52.5q-78 0 -115 35t-53 88h-10l-8 -235l-58 -273h-252z" />
<glyph unicode="&#x3c0;" horiz-adv-x="1363" d="M96 807q59 104 144.5 160.5t189.5 56.5h938l-47 -225h-162l-104 -480q-10 -57 1 -78.5t40 -21.5q20 0 44.5 4t43.5 8l2 -186q-43 -18 -107.5 -37.5t-154.5 -19.5q-84 0 -118 36.5t-34 102.5q0 20 3 43t7 47l123 582h-272l-168 -799h-252l168 799h-27q-35 0 -65.5 -20.5 t-65.5 -69.5z" />
<glyph unicode="&#x401;" horiz-adv-x="1030" d="M41 0l303 1434h266h541l-53 -250h-541l-72 -334h494l-55 -250h-490l-76 -350h551l-51 -250h-551h-266zM422 1634q0 59 41 89t106 30q66 0 107 -29.5t41 -89.5q0 -59 -41 -87.5t-107 -28.5t-106.5 28.5t-40.5 87.5zM840 1634q0 59 41 89t106 30q66 0 107 -29.5t41 -89.5 q0 -59 -41 -87.5t-107 -28.5t-106.5 28.5t-40.5 87.5z" />
<glyph unicode="&#x402;" horiz-adv-x="1452" d="M197 1184l53 250h1059l-52 -250h-397l-63 -293q35 12 92 28.5t162 16.5q98 0 165.5 -29.5t109.5 -82t60.5 -121t18.5 -144.5q0 -111 -33 -214t-102.5 -183t-179 -128t-263.5 -48q-109 0 -133 8l54 239q12 -2 41.5 -4t62.5 -2q63 0 114.5 22.5t86 61.5t53 90.5t18.5 108.5 q0 100 -49 138t-151 38q-45 0 -98.5 -12t-80.5 -25l-137 -649h-264l250 1184h-397z" />
<glyph unicode="&#x403;" horiz-adv-x="892" d="M41 0l303 1434h791l-54 -250h-524l-250 -1184h-266zM602 1540l256 242h322l-12 -62l-353 -180h-213z" />
<glyph unicode="&#x404;" horiz-adv-x="1144" d="M119 557q0 242 67.5 413t178 280.5t253 160.5t291.5 51q57 0 111.5 -5t102.5 -13t85 -18.5t62 -20.5l-105 -238q-43 23 -114.5 34t-159.5 11q-158 0 -278.5 -94t-176.5 -266h555l-49 -231h-543v-31q0 -174 87 -271.5t233 -97.5q92 0 168 19.5t127 48.5l6 -230 q-72 -45 -169 -66.5t-198 -21.5q-135 0 -235.5 45t-167 125t-99 186.5t-32.5 229.5z" />
<glyph unicode="&#x405;" horiz-adv-x="1044" d="M-4 57l137 238q20 -12 53 -26.5t75 -27t91 -20.5t99 -8q57 0 108 9t89 30.5t59.5 54.5t21.5 82q0 55 -37 94t-93 74t-120.5 73t-121 89t-93.5 123.5t-37 177.5q0 119 42 203t114 137t168 77.5t207 24.5q59 0 118.5 -6t112.5 -17.5t98.5 -26.5t75.5 -34l-135 -233 q-39 25 -114.5 50.5t-168.5 25.5q-47 0 -92 -9.5t-79.5 -30t-55 -53t-20.5 -77.5q0 -59 36.5 -100.5t93 -77t121 -72.5t121 -86t93 -118t36.5 -169q0 -121 -42 -208t-118.5 -142t-184 -81t-238.5 -26q-72 0 -136.5 8.5t-120 20.5t-97.5 27.5t-66 29.5z" />
<glyph unicode="&#x406;" horiz-adv-x="569" d="M72 0l303 1434h264l-303 -1434h-264z" />
<glyph unicode="&#x407;" horiz-adv-x="569" d="M72 0l303 1434h264l-303 -1434h-264zM285 1622q0 61 30.5 96t83.5 35q51 0 83 -35t32 -96q0 -59 -31.5 -93t-83.5 -34q-53 0 -83.5 34t-30.5 93zM557 1622q0 61 32 96t83 35t83.5 -35t32.5 -96q0 -59 -32.5 -93t-83.5 -34t-83 34t-32 93z" />
<glyph unicode="&#x408;" horiz-adv-x="663" d="M-104 23l102 229q47 -27 111 -27q43 0 71.5 17.5t48 48.5t31.5 73t25 93l204 977h267l-224 -1049q-18 -86 -46.5 -160.5t-76 -130t-118 -87.5t-170.5 -32q-57 0 -120.5 12.5t-104.5 35.5z" />
<glyph unicode="&#x409;" horiz-adv-x="1822" d="M-98 14l80 242q10 -4 21 -6t22 -2q35 -2 70.5 16.5t66.5 59.5q37 45 78 131t85 221t92 321.5t101 436.5h252h285h266l-109 -514q25 4 77 10t97 6q94 0 172 -25.5t135.5 -75t89.5 -121t32 -165.5q0 -154 -53.5 -262.5t-145.5 -176t-217 -99t-266 -31.5q-27 0 -73 1 t-99.5 5t-108.5 10t-98 18l247 1170h-284q-47 -195 -89 -354.5t-84 -286.5t-89 -225.5t-103 -172.5q-37 -49 -76.5 -79.5t-79.5 -48t-77 -24.5t-70 -7q-94 0 -147 28zM1067 242q23 -4 57.5 -8.5t73.5 -4.5q68 0 128 15.5t106.5 49.5t74 85t27.5 125q0 102 -65.5 142 t-174.5 40q-12 0 -32.5 -2t-40 -4t-37 -5t-25.5 -5z" />
<glyph unicode="&#x40a;" horiz-adv-x="1875" d="M41 0l303 1434h266l-118 -560h497l119 560h266l-114 -545q12 2 33.5 5t47 6t53 4t50.5 1q193 0 308.5 -98t115.5 -287q0 -125 -42 -225t-126 -170t-212 -107.5t-302 -37.5q-27 0 -70 1t-100.5 4t-111.5 8t-97 13l131 619h-498l-133 -625h-266zM1122 242q20 -6 57.5 -9.5 t75.5 -3.5q170 0 251 65.5t81 192.5q0 96 -61.5 132t-177.5 36q-14 0 -35 -2t-41.5 -4t-39 -6t-26.5 -6z" />
<glyph unicode="&#x40b;" horiz-adv-x="1488" d="M197 1184l53 250h1059l-52 -250h-399l-76 -363q57 33 132 58.5t184 25.5q68 0 127 -17.5t103 -56t70.5 -98t26.5 -143.5q0 -29 -3 -62.5t-11 -68.5l-96 -459h-266l90 414q4 25 7 46t3 42q0 162 -168 162q-74 0 -134.5 -19.5t-111.5 -50.5l-127 -594h-264l250 1184h-397z " />
<glyph unicode="&#x40c;" horiz-adv-x="1214" d="M41 0l303 1434h266l-135 -635l64 22l485 613h319l-516 -609l-122 -71l90 -80l311 -674h-297l-277 612h-96l-129 -612h-266zM653 1540l256 242h322l-12 -62l-353 -180h-213z" />
<glyph unicode="&#x40e;" horiz-adv-x="1118" d="M106 35l117 227q29 -16 53.5 -21t55.5 -5q43 0 84 44t80 113l-287 1041h293l143 -633l2 -187h12l68 193l334 627h297l-574 -992q-68 -117 -121 -202.5t-105 -142t-111.5 -84t-139.5 -27.5q-125 0 -201 49zM463 1749l222 41q-4 -57 27.5 -90t88.5 -33q133 0 174 121 l234 -35q-43 -125 -152.5 -186.5t-275.5 -61.5q-80 0 -139.5 19.5t-98.5 52.5t-58.5 77t-21.5 95z" />
<glyph unicode="&#x40f;" horiz-adv-x="1257" d="M41 0l303 1434h266l-252 -1184h478l251 1184h265l-303 -1434h-273h-133l-53 -358h-238l92 358h-137h-266z" />
<glyph unicode="&#x410;" horiz-adv-x="1191" d="M-78 0l797 1444h196l187 -1444h-268l-41 317h-418l-170 -317h-283zM492 543h290l-32 319l2 225h-11l-82 -227z" />
<glyph unicode="&#x411;" horiz-adv-x="1122" d="M41 14l301 1420h266h570l-54 -250h-569l-63 -299q35 6 84 12t96 6q113 0 191.5 -30.5t127.5 -82t72.5 -119t23.5 -139.5q0 -129 -44 -231t-129 -174t-207.5 -109.5t-278.5 -37.5q-33 0 -77 1t-103.5 6t-113.5 11t-93 16zM350 221q20 -6 63.5 -8t84.5 -2q57 0 112.5 17.5 t99.5 51t70.5 85t26.5 118.5q0 106 -62.5 147.5t-175.5 41.5q-29 0 -69.5 -5t-57.5 -10z" />
<glyph unicode="&#x412;" horiz-adv-x="1163" d="M41 10l299 1413q39 6 88 12.5t104.5 10.5t114 6t113.5 2q94 0 175 -19.5t139.5 -60.5t92 -105.5t33.5 -154.5q0 -68 -22.5 -130t-64.5 -111.5t-100.5 -82t-131.5 -42.5v-11q39 -8 77.5 -29.5t69.5 -55.5t49.5 -80t18.5 -103q0 -131 -51.5 -224t-137.5 -151.5t-200.5 -86 t-241.5 -27.5h-85t-111.5 3t-119 9t-108.5 18zM342 223q8 -4 29.5 -6t47 -3t52.5 -2t45 -1q51 0 105.5 12.5t98.5 41t72.5 73.5t28.5 111q0 51 -22.5 83.5t-59.5 52t-85 26.5t-99 7h-131zM471 831h88q29 0 68 1.5t65 5.5q37 6 79 20t76 41t56.5 68t22.5 102q0 88 -58.5 121 t-148.5 33q-53 0 -98.5 -2t-69.5 -7z" />
<glyph unicode="&#x413;" horiz-adv-x="892" d="M41 0l303 1434h791l-54 -250h-524l-250 -1184h-266z" />
<glyph unicode="&#x414;" horiz-adv-x="1357" d="M-131 -256l106 506h144q18 23 68.5 99.5t111.5 219t128 355.5t120 510h239h312h266l-252 -1184h174l-108 -506h-187l25 256h-875l-84 -256h-188zM406 250h442l196 934h-299q-86 -369 -178 -600.5t-161 -333.5z" />
<glyph unicode="&#x415;" horiz-adv-x="1030" d="M41 0l303 1434h266h541l-53 -250h-541l-72 -334h494l-55 -250h-490l-76 -350h551l-51 -250h-551h-266z" />
<glyph unicode="&#x416;" horiz-adv-x="1644" d="M-94 0l483 629l125 80l-78 75l-200 650h286l168 -613h82l129 613h254l-135 -637l70 22l399 615h315l-448 -629l-109 -70l86 -86l230 -649h-295l-201 623h-84l-131 -623h-254l137 647l-67 -24l-437 -623h-325z" />
<glyph unicode="&#x417;" horiz-adv-x="1038" d="M-35 47l119 244q41 -23 119 -46.5t192 -23.5q49 0 102.5 12.5t96.5 40t70.5 72.5t27.5 111q0 98 -70.5 135t-201.5 41h-78h-53l47 221h47q18 0 43 1t50.5 3t50 4t40.5 4q41 6 82 19.5t73 38t52.5 59.5t20.5 84q0 66 -50.5 103.5t-148.5 37.5q-86 0 -165 -24.5t-130 -46.5 l-18 237q25 12 66.5 26.5t94 27t113.5 21.5t123 9q86 0 157.5 -19.5t125 -58.5t83 -97t29.5 -134q0 -141 -76.5 -247.5t-228.5 -141.5v-10q39 -12 76 -34t64.5 -56.5t45 -84t17.5 -116.5q0 -125 -49.5 -216t-134 -151.5t-199.5 -90.5t-244 -30t-230.5 22.5t-150.5 53.5z" />
<glyph unicode="&#x418;" horiz-adv-x="1306" d="M41 0l303 1434h266l-161 -766l-62 -189h12l136 203l663 752h205l-303 -1434h-266l163 780l60 183h-13l-131 -197l-667 -766h-205z" />
<glyph unicode="&#x419;" horiz-adv-x="1306" d="M41 0l303 1434h266l-161 -766l-62 -189h12l136 203l663 752h205l-303 -1434h-266l163 780l60 183h-13l-131 -197l-667 -766h-205zM594 1749l222 41q-4 -57 27.5 -90t88.5 -33q133 0 174 121l234 -35q-43 -125 -152.5 -186.5t-275.5 -61.5q-80 0 -139.5 19.5t-98.5 52.5 t-58.5 77t-21.5 95z" />
<glyph unicode="&#x41a;" horiz-adv-x="1214" d="M41 0l303 1434h266l-135 -635l64 22l485 613h319l-516 -609l-122 -71l90 -80l311 -674h-297l-277 612h-96l-129 -612h-266z" />
<glyph unicode="&#x41b;" horiz-adv-x="1226" d="M-98 14l80 242q10 -4 21 -6t22 -2q35 -2 70.5 16.5t66.5 59.5q37 45 78 131t85 221t92 321.5t101 436.5h252h285h266l-303 -1434h-264l250 1184h-287q-47 -195 -89 -354.5t-84 -286.5t-89 -225.5t-103 -172.5q-37 -49 -76.5 -79.5t-79.5 -48t-77 -24.5t-70 -7 q-94 0 -147 28z" />
<glyph unicode="&#x41c;" horiz-adv-x="1570" d="M41 0l303 1434h236l215 -656l26 -164h10l95 168l483 652h256l-303 -1434h-264l157 743l91 283h-13l-135 -231l-403 -531h-84l-193 537l-37 225h-10l-20 -281l-158 -745h-252z" />
<glyph unicode="&#x41d;" horiz-adv-x="1277" d="M41 0l303 1434h266l-123 -584h498l123 584h266l-303 -1434h-266l127 600h-498l-127 -600h-266z" />
<glyph unicode="&#x41e;" horiz-adv-x="1318" d="M119 537q0 190 52 359t148.5 295t232.5 198.5t304 72.5q111 0 200 -32.5t151.5 -101t97 -173t34.5 -248.5q0 -193 -52 -362.5t-147.5 -297.5t-227.5 -202t-291 -74q-242 0 -371 142.5t-131 423.5zM399 545q0 -147 56.5 -235.5t185.5 -88.5q94 0 171 56.5t132 151.5 t85 218t30 256q0 162 -63.5 235.5t-174.5 73.5q-92 0 -169 -53t-133 -144t-88 -213t-32 -257z" />
<glyph unicode="&#x41f;" horiz-adv-x="1255" d="M41 0l303 1434h266h475h267l-303 -1434h-267l250 1184h-475l-250 -1184h-266z" />
<glyph unicode="&#x420;" horiz-adv-x="1126" d="M41 0l301 1419q86 16 183.5 25.5t195.5 9.5q104 0 193.5 -23.5t156 -72.5t103 -126t36.5 -183q0 -160 -55 -267.5t-146 -174t-208 -94.5t-238 -28h-31.5t-45 1t-45 3.5t-31.5 4.5l-103 -494h-266zM463 735q8 -2 22.5 -4t32 -3t32.5 -1h23q70 0 134.5 15.5t113.5 49t79 89 t30 135.5q0 59 -19.5 98t-52.5 60.5t-77 29.5t-93 8q-37 0 -70.5 -3t-56.5 -7z" />
<glyph unicode="&#x421;" horiz-adv-x="1099" d="M119 557q0 242 67.5 413t178 280.5t253 160.5t291.5 51q117 0 200 -17.5t130 -39.5l-104 -238q-41 23 -98.5 34t-145.5 11q-104 0 -194.5 -43t-156 -122.5t-103.5 -194.5t-38 -260q0 -174 87 -272.5t233 -98.5q92 0 152.5 19.5t113.5 48.5l4 -230q-137 -88 -336 -88 q-135 0 -235.5 45t-167 125t-99 186.5t-32.5 229.5z" />
<glyph unicode="&#x422;" horiz-adv-x="1120" d="M197 1184l53 250h1059l-52 -250h-397l-252 -1184h-264l250 1184h-397z" />
<glyph unicode="&#x423;" horiz-adv-x="1118" d="M106 35l117 227q29 -16 53.5 -21t55.5 -5q43 0 84 44t80 113l-287 1041h293l143 -633l2 -187h12l68 193l334 627h297l-574 -992q-68 -117 -121 -202.5t-105 -142t-111.5 -84t-139.5 -27.5q-125 0 -201 49z" />
<glyph unicode="&#x424;" horiz-adv-x="1576" d="M104 563q0 184 48.5 324.5t133.5 233.5t198.5 141.5t242.5 48.5q27 0 63.5 -3t59.5 -8l37 175h262l-37 -181q39 10 79 13.5t71 3.5q160 0 256 -105.5t96 -310.5q0 -164 -44 -301t-124 -237.5t-191.5 -156t-248.5 -55.5q-35 0 -72 3.5t-64 11.5l-43 -201h-262l43 201 q-41 -8 -71.5 -11.5t-81.5 -3.5q-70 0 -133.5 26t-111.5 78t-77 131t-29 183zM373 604q0 -63 15 -107t41 -72t60.5 -41t73.5 -13q16 0 47 1t56 9l147 698q-20 4 -46 5t-48 1q-74 0 -136.5 -32.5t-109.5 -95t-73.5 -151.5t-26.5 -202zM905 375q16 -4 40 -4h48 q74 0 137.5 33.5t111.5 96t76 152.5t28 203q0 229 -187 229q-23 0 -53.5 -2t-52.5 -8z" />
<glyph unicode="&#x425;" horiz-adv-x="1245" d="M-49 0l573 731l-231 703h289l123 -414l20 -146l76 146l305 414h319l-538 -693l256 -741h-285l-147 442l-25 152l-82 -152l-330 -442h-323z" />
<glyph unicode="&#x426;" horiz-adv-x="1341" d="M41 0l303 1434h266l-252 -1184h471l252 1184h265l-250 -1184h172l-109 -506h-186l24 256h-219h-471h-266z" />
<glyph unicode="&#x427;" horiz-adv-x="1193" d="M199 809q0 63 14 129l104 496h265l-95 -445q-6 -27 -7 -49t-1 -45q0 -80 38 -119t124 -39q74 0 138.5 16.5t109.5 51.5l133 629h266l-303 -1434h-266l123 578q-29 -14 -59.5 -28.5t-67.5 -27t-83 -19.5t-104 -7q-72 0 -132 18t-104 57t-68.5 98.5t-24.5 139.5z" />
<glyph unicode="&#x428;" horiz-adv-x="1689" d="M41 0l303 1434h266l-252 -1184h322l252 1184h264l-250 -1184h322l250 1184h266l-303 -1434h-264h-322h-266h-322h-266z" />
<glyph unicode="&#x429;" horiz-adv-x="1779" d="M41 0l303 1434h266l-252 -1184h322l252 1184h264l-250 -1184h322l250 1184h266l-252 -1184h180l-106 -506h-187l25 256h-227h-322h-266h-322h-266z" />
<glyph unicode="&#x42a;" horiz-adv-x="1294" d="M166 1184l51 250h309h267l-109 -514q27 4 79 10t97 6q195 0 310.5 -102.5t115.5 -284.5q0 -131 -43 -236.5t-127 -179.5t-212 -113.5t-296 -39.5q-27 0 -70.5 1t-100 5t-112 10t-98.5 18l248 1170h-309zM541 242q20 -6 54 -9.5t73 -3.5q66 0 127 15.5t108 49.5t75 86 t28 126q0 53 -18.5 88t-50.5 55.5t-75 28.5t-92 8q-14 0 -34.5 -2l-41 -4t-38 -5t-25.5 -5z" />
<glyph unicode="&#x42b;" horiz-adv-x="1566" d="M41 14l301 1420h266l-108 -514l67.5 10t87.5 6q98 0 175 -27.5t129.5 -78t79 -119t26.5 -150.5q0 -135 -45 -242.5t-131 -183.5t-211 -115.5t-285 -39.5h-53.5t-32.5 2q-37 0 -80 4t-93 10t-93 18zM354 242q43 -12 111 -13q68 0 126 18.5t101 54.5t67.5 87t24.5 119 q0 178 -217 178q-27 0 -65.5 -5t-55.5 -11zM1092 0l303 1434h266l-303 -1434h-266z" />
<glyph unicode="&#x42c;" horiz-adv-x="1110" d="M41 14l301 1420h266l-108 -514q25 4 77 10t97 6q94 0 172 -25.5t135 -75t89 -121t32 -165.5q0 -154 -53.5 -262.5t-145.5 -176t-217 -99t-266 -31.5q-27 0 -70 1t-99 5t-111.5 10t-98.5 18zM354 242q23 -4 57.5 -8.5t73.5 -4.5q68 0 128.5 15.5t106.5 49.5t73.5 85 t27.5 125q0 102 -65.5 143t-173.5 39q-12 0 -33 -2t-40.5 -4t-36.5 -5t-26 -5z" />
<glyph unicode="&#x42d;" horiz-adv-x="1130" d="M-25 39l123 244q39 -23 111 -42.5t170 -19.5q90 0 170 29t141.5 81t103.5 124.5t58 158.5h-539l47 226h514q6 78 -4 146.5t-43.5 118.5t-96 78.5t-161.5 28.5q-102 0 -173.5 -23.5t-125.5 -51.5l-8 237q78 37 169 62.5t196 25.5q143 0 244.5 -45t164 -120.5t91 -173 t28.5 -203.5q0 -203 -49 -377t-150.5 -301t-257 -199t-368.5 -72q-53 0 -105.5 6.5t-99.5 15.5t-86 21.5t-64 24.5z" />
<glyph unicode="&#x42e;" horiz-adv-x="1769" d="M41 0l303 1434h266l-123 -584h175q86 301 261 456.5t406 155.5q223 0 343 -135t120 -371q0 -199 -48 -378t-140.5 -314t-229.5 -214t-315 -79q-115 0 -198 40t-136 111t-78.5 165t-25.5 205q0 53 6 108h-193l-127 -600h-266zM891 510q0 -131 49 -210t168 -79 q92 0 167 60.5t127 160t80.5 229.5t28.5 269q0 129 -53 200.5t-164 71.5q-90 0 -163.5 -58t-127 -155.5t-83 -224.5t-29.5 -264z" />
<glyph unicode="&#x42f;" horiz-adv-x="1140" d="M-61 0l376 481l136 90q-37 16 -77 45t-73 72t-53.5 102.5t-20.5 139.5q0 154 59.5 254t155 160.5t217 85t246.5 24.5q31 0 62 -2q2 0 29.5 -1t73.5 -5t89 -10t76 -17l-301 -1419h-264l121 567l-144 -37l-399 -530h-309zM508 948q0 -98 60.5 -148t158.5 -50h100l97 444 q-23 4 -47.5 7t-59.5 3q-55 0 -110.5 -11t-99.5 -40t-71.5 -79t-27.5 -126z" />
<glyph unicode="&#x430;" horiz-adv-x="1030" d="M68 295q0 150 37.5 287t117.5 241.5t202 167t290 62.5q72 0 156.5 -13.5t164.5 -35.5l-127 -594q-16 -78 -23 -158t-7 -152q0 -29 1 -54.5t3 -47.5h-187l-28 176h-9q-23 -37 -58.5 -72.5t-78.5 -65.5t-91 -47.5t-99 -17.5q-135 0 -199.5 88t-64.5 236zM328 344 q0 -66 21.5 -114t78.5 -48q37 0 69.5 15.5t60.5 40t49.5 53t37.5 53.5l103 477q-23 10 -52.5 15.5t-58.5 5.5q-74 0 -131 -44t-97 -115t-60.5 -160t-20.5 -179z" />
<glyph unicode="&#x431;" horiz-adv-x="1034" d="M86 371q0 215 47 401t129 325.5t194.5 223.5t245.5 94q168 14 274.5 26.5t149.5 47.5l-26 -236q-41 -29 -121 -44t-221 -25q-68 -6 -127.5 -21.5t-110.5 -56.5t-94 -112.5t-76 -190.5h10q147 199 369 198q80 0 135.5 -23.5t90 -65.5t50 -100t15.5 -128q0 -164 -44 -296 t-121 -224t-178.5 -142.5t-213.5 -50.5q-96 0 -167 30t-117 82t-69.5 126t-23.5 162zM346 377q0 -39 6 -75t21.5 -62.5t44 -42t71.5 -15.5q49 0 97.5 33t87.5 91.5t62.5 139t23.5 179.5q0 31 -7.5 60.5t-23.5 53t-43 38t-65 14.5q-55 0 -105.5 -32t-87.5 -87.5t-59.5 -131 t-22.5 -163.5z" />
<glyph unicode="&#x432;" horiz-adv-x="952" d="M68 309q0 41 6 85t16 95l21 101q23 98 67.5 181t110 143.5t150.5 93t186 32.5q90 0 151.5 -14t99 -42t54 -66.5t16.5 -90.5q0 -49 -18.5 -93t-49 -81t-73.5 -65.5t-92 -42.5l-2 -8q84 -10 129 -50.5t45 -126.5q0 -90 -37 -159.5t-101.5 -117.5t-152.5 -73.5t-191 -25.5 q-74 0 -135 18t-106 57t-69.5 100.5t-24.5 149.5zM307 326q0 -137 137 -138q78 0 132.5 41t54.5 117q0 45 -37 75t-131 21l-141 -10l-7 -29q-8 -39 -8 -77zM350 590l154 16q25 2 56.5 12.5t59 28t47 43t19.5 60.5q0 41 -18.5 63.5t-83.5 22.5q-166 0 -217 -189z" />
<glyph unicode="&#x433;" horiz-adv-x="839" d="M27 252q0 96 39.5 158.5t99 102.5t128 64.5t128 47t99.5 49t40 71.5q0 47 -26.5 66.5t-85.5 19.5q-92 0 -151.5 -17t-102.5 -38l-31 191q33 18 77 31.5t93 23.5t99 15t93 5q82 0 138.5 -18t91.5 -50t50 -75t15 -92q0 -100 -40 -162.5t-99 -103.5t-128 -65.5t-128 -48.5 t-99 -54.5t-40 -79.5q0 -53 39 -82t98 -29q70 0 134.5 18.5t105.5 45.5l55 -164q-66 -49 -157 -80t-177 -31q-98 0 -165.5 23.5t-110.5 63.5t-62.5 90.5t-19.5 103.5z" />
<glyph unicode="&#x434;" horiz-adv-x="1026" d="M76 381q0 129 38 244.5t107.5 205t165.5 141.5t213 52q55 0 88 -10t57 -27h11q-12 147 -115.5 219t-265.5 70l41 186q303 8 448.5 -148.5t145.5 -451.5q0 -225 -47.5 -392t-127 -277.5t-182 -166t-213.5 -55.5q-186 0 -275 112t-89 298zM336 377q0 -78 31.5 -136.5 t99.5 -58.5q76 0 129 56.5t87 142.5t50.5 188.5t16.5 194.5q-29 25 -61 37t-81 12q-53 0 -102 -29.5t-87 -86t-60.5 -137.5t-22.5 -183z" />
<glyph unicode="&#x435;" horiz-adv-x="954" d="M70 340q0 164 51 296t134 224t187.5 142.5t208.5 50.5q84 0 144.5 -21.5t99.5 -59.5t57.5 -87t18.5 -105q0 -84 -43 -147.5t-120 -105.5t-185.5 -63.5t-237.5 -21.5q-16 0 -30.5 1t-30.5 1q-4 -25 -6.5 -44t-2.5 -35q0 -92 48.5 -137.5t136.5 -45.5q90 0 161.5 27 t108.5 53l53 -164q-63 -53 -163.5 -90t-233.5 -37q-166 0 -261 97.5t-95 271.5zM360 604q57 0 122 4t120 19.5t92 45t37 81.5q0 31 -22.5 62.5t-94.5 31.5q-90 0 -156.5 -70t-97.5 -174z" />
<glyph unicode="&#x436;" horiz-adv-x="1550" d="M-51 27l67 204q37 -10 66 -10q76 0 133 69.5t90 235.5q8 41 10 74t2 62q0 104 -42 138t-113 21l-25 183q92 25 164 24q123 0 186.5 -71.5t63.5 -225.5q0 -29 -2 -58.5t-6 -64.5h155l88 416h242l-90 -416h143q29 119 71 200t93 131t108.5 71.5t114.5 21.5q63 0 134 -26 l-54 -185q-23 6 -43 6q-63 0 -118.5 -60t-90.5 -218q-18 -80 -18 -148q0 -53 10 -94t31.5 -67.5t52.5 -34.5t72 6l24 -184q-96 -33 -168 -33q-70 0 -118.5 27.5t-79.5 74.5t-44.5 111.5t-13.5 136.5q0 20 1.5 38.5t3.5 39.5h-150l-88 -422h-242l90 422h-149 q-31 -117 -75 -200t-96 -134t-110.5 -74.5t-119.5 -23.5q-41 0 -80 10t-80 27z" />
<glyph unicode="&#x437;" horiz-adv-x="833" d="M-41 59l94 193q41 -27 101.5 -46.5t136.5 -19.5q96 0 149.5 44t53.5 112q0 45 -39 64.5t-156 19.5h-94l39 182h118q33 0 67 10.5t59.5 29t42 43t16.5 52.5q0 49 -32 70t-109 21q-68 0 -115 -12.5t-98 -35.5l-43 187q33 18 75.5 30.5t91 21.5t98.5 13t97 4 q164 0 233.5 -58t67.5 -161q0 -49 -16.5 -93t-45 -79t-66.5 -61.5t-81 -40.5v-8q84 -20 116 -72.5t32 -116.5q0 -88 -37 -157.5t-102.5 -117.5t-154.5 -74t-194 -26q-98 0 -179 25t-126 57z" />
<glyph unicode="&#x438;" horiz-adv-x="1048" d="M80 197q0 76 20 165l142 662h252l-134 -633q-12 -61 -12 -102t16.5 -63.5t57.5 -22.5q35 0 70.5 17.5t68.5 45t60.5 61t46.5 66.5l131 631h252l-129 -614q-10 -41 -17.5 -96.5t-13.5 -114t-8 -111.5t0 -88h-203l-10 184h-8q-29 -39 -67 -76.5t-84 -68.5t-100.5 -49.5 t-115.5 -18.5q-96 0 -155.5 48.5t-59.5 177.5z" />
<glyph unicode="&#x439;" horiz-adv-x="1048" d="M80 197q0 76 20 165l142 662h252l-134 -633q-12 -61 -12 -102t16.5 -63.5t57.5 -22.5q35 0 70.5 17.5t68.5 45t60.5 61t46.5 66.5l131 631h252l-129 -614q-10 -41 -17.5 -96.5t-13.5 -114t-8 -111.5t0 -88h-203l-10 184h-8q-29 -39 -67 -76.5t-84 -68.5t-100.5 -49.5 t-115.5 -18.5q-96 0 -155.5 48.5t-59.5 177.5zM377 1389l225 53q-4 -80 20.5 -113t75.5 -33q53 0 93.5 33t68.5 111l178 -51q-49 -133 -153.5 -198t-229.5 -65q-59 0 -112 14.5t-91 46.5t-58.5 81t-16.5 121z" />
<glyph unicode="&#x43a;" horiz-adv-x="966" d="M31 0l217 1024h252l-94 -436l73 26l285 410h276l-299 -389l-118 -78l94 -80l162 -477h-269l-149 424h-90l-88 -424h-252z" />
<glyph unicode="&#x43b;" horiz-adv-x="1028" d="M-96 18l78 222q35 -10 59 -11q41 2 77 37t74.5 124t82.5 242.5t102 391.5h661l-217 -1024h-252l174 813h-188q-51 -190 -99 -343t-105.5 -260.5t-128 -164.5t-165.5 -57q-111 0 -153 30z" />
<glyph unicode="&#x43c;" horiz-adv-x="1312" d="M31 0l217 1024h250l137 -385l31 -129h6l84 133l288 381h279l-217 -1024h-242l99 469l61 213h-10l-115 -176l-252 -318h-92l-131 318l-37 176h-12l-19 -211l-98 -471h-227z" />
<glyph unicode="&#x43d;" horiz-adv-x="1060" d="M31 0l217 1024h252l-84 -383h319l82 383h254l-217 -1024h-254l86 399h-319l-84 -399h-252z" />
<glyph unicode="&#x43e;" horiz-adv-x="1015" d="M70 332q0 162 46 295t122.5 227t178 146.5t212.5 52.5q98 0 165.5 -31t109.5 -82t60.5 -116.5t18.5 -135.5q0 -160 -45 -292t-121 -226t-176 -146.5t-211 -52.5q-96 0 -163.5 32t-111.5 83t-64.5 115.5t-20.5 130.5zM330 367q0 -184 133 -185q49 0 96 43t84 113t58.5 158 t21.5 176q0 82 -27.5 126t-103.5 44q-49 0 -96 -41t-84 -107.5t-59.5 -152.5t-22.5 -174z" />
<glyph unicode="&#x43f;" horiz-adv-x="1067" d="M29 0l217 1024h190l-10 -180h8q27 33 63 69.5t83 67.5t105.5 51.5t131.5 20.5q92 0 147.5 -50.5t55.5 -166.5q0 -31 -3 -66t-13 -76l-148 -694h-252l136 635q12 57 12 100q0 45 -18.5 70.5t-67.5 25.5q-37 0 -74 -18t-69.5 -49t-61.5 -69t-49 -77l-131 -618h-252z" />
<glyph unicode="&#x440;" horiz-adv-x="1036" d="M-53 -410l303 1434h186l-10 -180h8q29 39 66 76.5t82 66.5t96 47.5t110 18.5q104 0 168 -72t64 -225q0 -174 -46 -318.5t-123 -248t-180.5 -161t-215.5 -57.5q-53 0 -100.5 10.5t-69.5 26.5l-88 -418h-250zM328 217q51 -35 114 -35t121 43t102 115t69.5 167t25.5 200 q0 59 -27.5 97t-75.5 38q-37 0 -71.5 -18.5t-65.5 -46t-55.5 -62.5t-42.5 -68z" />
<glyph unicode="&#x441;" horiz-adv-x="843" d="M70 324q0 172 49 307t130 228t184.5 143.5t211.5 50.5q96 0 152.5 -18.5t101.5 -41.5l-94 -200q-39 23 -81 30.5t-91 7.5q-55 0 -107.5 -35.5t-94.5 -94t-66.5 -136.5t-24.5 -159q0 -104 45 -158.5t119 -54.5q61 0 113.5 19t93.5 44l47 -172q-66 -49 -153 -81t-173 -32 q-98 0 -166.5 29t-111.5 78t-63.5 112.5t-20.5 133.5z" />
<glyph unicode="&#x442;" horiz-adv-x="1570" d="M37 0l217 1024h197l-13 -180h8q31 33 67 69.5t81 67.5t100.5 51.5t120.5 20.5q82 0 124 -59.5t38 -157.5q31 39 70.5 77.5t86 69.5t98.5 50.5t107 19.5q94 0 144.5 -44t50.5 -165q0 -88 -31 -230l-129 -614h-252l121 575q10 47 16.5 88.5t6.5 71.5q0 47 -17.5 71.5 t-58.5 24.5q-33 0 -66.5 -19t-64.5 -49t-56.5 -64.5t-39.5 -65.5l-132 -633h-251l116 557q12 57 19.5 101t7.5 79q0 94 -72 94q-35 0 -69.5 -18t-64.5 -47t-55.5 -62.5t-41.5 -64.5l-131 -639h-252z" />
<glyph unicode="&#x443;" horiz-adv-x="925" d="M-35 -389l68 201q12 -6 25.5 -8.5t25.5 -2.5q49 0 100.5 47.5t102.5 151.5l-193 1024h289l59 -575l2 -160h13l55 162l279 573h268l-492 -920q-61 -115 -115.5 -211t-109.5 -165.5t-114.5 -108.5t-127.5 -39q-90 0 -135 31z" />
<glyph unicode="&#x444;" horiz-adv-x="1411" d="M59 305q0 182 47.5 320.5t125 231.5t178 140t206.5 47q53 0 93 -8l84 398h247l-84 -400q35 6 63 8t54 2q162 0 239 -89t77 -236q0 -190 -49.5 -331.5t-128 -234t-177 -137.5t-196.5 -45q-18 0 -51 3t-54 12l-84 -396h-248l84 398q-33 -10 -61.5 -13.5t-52.5 -3.5 q-158 0 -235 92.5t-77 241.5zM313 356q0 -86 38 -133t110 -47q20 0 37.5 3t40.5 9l137 641q-18 4 -35.5 7.5t-40.5 3.5q-47 0 -97 -35t-92 -99.5t-70 -153.5t-28 -196zM766 184q14 -4 32.5 -6t39.5 -2q51 0 104 34t96 98.5t70 159.5t27 216q0 76 -38 116t-124 40 q-20 0 -33.5 -3t-36.5 -10z" />
<glyph unicode="&#x445;" horiz-adv-x="1015" d="M-84 0l424 524l-184 500h284l78 -219l27 -143l90 143l178 219h293l-399 -492l204 -532h-278l-98 246l-31 151l-92 -151l-203 -246h-293z" />
<glyph unicode="&#x446;" horiz-adv-x="1097" d="M80 197q0 76 20 165l142 662h252l-134 -631q-12 -61 -12 -104q0 -41 16.5 -63.5t57.5 -22.5q35 0 70.5 17.5t68.5 45t60.5 61t46.5 66.5l131 631h252l-140 -657q-12 -59 -12 -95q0 -35 14.5 -49t51.5 -14h102l-125 -442h-194l63 233q-88 0 -126 48t-21 136h-9 q-23 -35 -58.5 -72.5t-81.5 -68.5t-102.5 -51.5t-117.5 -20.5q-96 0 -155.5 48.5t-59.5 177.5z" />
<glyph unicode="&#x447;" horiz-adv-x="993" d="M109 551q0 59 14 125l74 348h252l-50 -233q-10 -43 -15 -78t-5 -64q0 -57 23.5 -85.5t78.5 -28.5q59 0 103.5 18t72.5 41l95 430h252l-218 -1024h-251l83 401q-35 -23 -99 -50t-163 -27q-53 0 -98 11t-79 37.5t-52 69.5t-18 109z" />
<glyph unicode="&#x448;" horiz-adv-x="1531" d="M80 180q0 88 31 230l129 614h252l-121 -575q-10 -49 -16.5 -88t-6.5 -70q0 -90 55 -90q35 0 70 18.5t64.5 47t53 61t38.5 63.5l131 633h254l-119 -557q-25 -115 -25 -174q0 -92 64 -92q27 0 58.5 17.5t61 44t56.5 59t43 63.5l131 639h252l-152 -715q-16 -78 -25 -156.5 t-13 -152.5h-207l-6 174h-9q-31 -37 -65.5 -72.5t-76.5 -62.5t-92 -43t-112 -16q-74 0 -120 51t-42 151q-61 -80 -146 -141t-200 -61q-92 0 -141 41.5t-49 158.5z" />
<glyph unicode="&#x449;" horiz-adv-x="1579" d="M80 180q0 88 31 230l129 614h252l-121 -575q-10 -49 -16.5 -88t-6.5 -70q0 -90 55 -90q35 0 70 18.5t64.5 47t53 61t38.5 63.5l131 633h254l-119 -557q-25 -115 -25 -174q0 -92 64 -92q27 0 58.5 17.5t61 44t56.5 59t43 63.5l131 639h252l-141 -657q-6 -29 -10.5 -52.5 t-4.5 -42.5q0 -35 15.5 -49t52.5 -14h104l-127 -442h-192l61 233q-88 0 -126 48t-21 136h-8q-61 -84 -149.5 -144t-211.5 -60q-74 0 -121 51t-43 151q-61 -80 -146 -141t-198 -61q-92 0 -141 41.5t-49 158.5z" />
<glyph unicode="&#x44a;" horiz-adv-x="1048" d="M84 813l45 211h485l-104 -381q49 16 107.5 23.5t107.5 7.5q145 0 214 -59.5t69 -170.5q0 -96 -44 -180t-121 -145.5t-178.5 -97t-218.5 -35.5q-78 0 -131 16t-85.5 45t-47 68t-14.5 84q0 25 4 49t10 51l135 514h-233zM428 268q0 -72 92 -71q45 0 86 14t73 39.5t50.5 60.5 t18.5 76q0 49 -25 74.5t-94 25.5q-41 0 -84 -10t-72 -26l-37 -136q-4 -14 -6 -25t-2 -22z" />
<glyph unicode="&#x44b;" horiz-adv-x="1382" d="M74 176q0 29 6 64l172 784h252l-86 -377q41 10 98 18.5t100 8.5q152 0 214.5 -61.5t62.5 -159.5q0 -104 -44 -190.5t-118 -148t-172 -95t-207 -33.5q-145 0 -211.5 50t-66.5 140zM334 262q0 -66 80 -65q43 0 83 14t69.5 38.5t48 58.5t18.5 75q0 57 -27.5 80.5t-97.5 23.5 q-37 0 -68.5 -7t-60.5 -17l-39 -172q-2 -8 -4 -14.5t-2 -14.5zM924 0l217 1024h252l-217 -1024h-252z" />
<glyph unicode="&#x44c;" horiz-adv-x="950" d="M76 184v27.5t4 28.5l174 784h252l-88 -381q45 12 101 21.5t122 9.5q84 0 137 -19.5t83 -51.5t40 -71.5t10 -80.5q0 -98 -38.5 -183.5t-110.5 -148t-171 -98t-222 -35.5q-84 0 -140.5 16t-90.5 44t-48 63.5t-14 74.5zM336 276q-4 -80 98 -79q43 0 82 14t68.5 41t48 61.5 t18.5 77.5q0 53 -27.5 74.5t-97.5 21.5q-41 0 -78.5 -9t-66.5 -23l-39 -152q-2 -8 -4 -14t-2 -13z" />
<glyph unicode="&#x44d;" horiz-adv-x="886" d="M-47 53l96 189q41 -27 100.5 -43.5t122.5 -16.5q242 0 297 250h-366l33 174h362q2 16 3 32.5t1 29.5q0 90 -43 132t-115 42q-94 0 -150 -17.5t-104 -40.5l-57 166q82 49 175 76t192 27q174 0 264 -92.5t90 -258.5q0 -193 -48 -331t-128 -227t-184.5 -131t-219.5 -42 q-98 0 -186 23.5t-135 58.5z" />
<glyph unicode="&#x44e;" horiz-adv-x="1431" d="M31 0l217 1024h252l-84 -393h147q59 199 188.5 310.5t301.5 111.5q98 0 163.5 -31t105.5 -82t57.5 -116.5t17.5 -135.5q0 -156 -43 -288t-117 -227t-172 -148.5t-209 -53.5q-98 0 -162.5 32t-104.5 83t-56.5 115.5t-16.5 130.5q0 23 1 44t3 44h-149l-88 -420h-252z M766 367q0 -92 26.5 -138.5t94.5 -46.5q47 0 92 43t80 113t56.5 158t21.5 176q0 82 -23.5 126t-99.5 44q-49 0 -94.5 -41t-79 -107.5t-54 -152.5t-20.5 -174z" />
<glyph unicode="&#x44f;" horiz-adv-x="985" d="M-66 0l246 326l117 71q-68 18 -117 76.5t-49 151.5q0 94 40 173t109.5 135t164 88t204.5 32q51 0 103.5 -6.5t98.5 -16.5t84 -21.5t60 -19.5l-209 -989h-251l79 373l-129 -25l-249 -348h-302zM391 651q0 -66 39 -98.5t143 -32.5l72 4l64 289q-10 4 -38 11t-69 7 q-90 0 -150.5 -47t-60.5 -133z" />
<glyph unicode="&#x451;" horiz-adv-x="954" d="M70 340q0 164 51 296t134 224t187.5 142.5t208.5 50.5q84 0 144.5 -21.5t99.5 -59.5t57.5 -87t18.5 -105q0 -84 -43 -147.5t-120 -105.5t-185.5 -63.5t-237.5 -21.5q-16 0 -30.5 1t-30.5 1q-4 -25 -6.5 -44t-2.5 -35q0 -92 48.5 -137.5t136.5 -45.5q90 0 161.5 27 t108.5 53l53 -164q-63 -53 -163.5 -90t-233.5 -37q-166 0 -261 97.5t-95 271.5zM348 1294q0 68 38 106t97 38t97 -38t38 -106q0 -66 -38 -102.5t-97 -36.5t-97 36.5t-38 102.5zM360 604q57 0 122 4t120 19.5t92 45t37 81.5q0 31 -22.5 62.5t-94.5 31.5q-90 0 -156.5 -70 t-97.5 -174zM774 1296q0 66 38 104t97 38t97 -38t38 -104t-38 -103.5t-97 -37.5t-97 37.5t-38 103.5z" />
<glyph unicode="&#x452;" horiz-adv-x="1046" d="M57 0l226 1065h-144l35 164h143l43 205h252l-45 -205h318l-35 -164h-318l-61 -287h8q27 27 61.5 55.5t79 53t97.5 40t117 15.5q96 0 146 -49t50 -168q0 -82 -24 -199l-111 -526q-47 -217 -138 -321.5t-245 -104.5q-29 0 -58.5 3t-62.5 11l47 228q49 -4 84 5t57.5 32.5 t38 60.5t25.5 86l105 494q16 76 16 124q0 53 -20.5 83t-67.5 30q-35 0 -73 -16.5t-71.5 -43t-62.5 -60t-45 -70.5l-115 -541h-252z" />
<glyph unicode="&#x453;" horiz-adv-x="839" d="M27 252q0 96 39.5 158.5t99 102.5t128 64.5t128 47t99.5 49t40 71.5q0 47 -26.5 66.5t-85.5 19.5q-92 0 -151.5 -17t-102.5 -38l-31 191q33 18 77 31.5t93 23.5t99 15t93 5q82 0 138.5 -18t91.5 -50t50 -75t15 -92q0 -100 -40 -162.5t-99 -103.5t-128 -65.5t-128 -48.5 t-99 -54.5t-40 -79.5q0 -53 39 -82t98 -29q70 0 134.5 18.5t105.5 45.5l55 -164q-66 -49 -157 -80t-177 -31q-98 0 -165.5 23.5t-110.5 63.5t-62.5 90.5t-19.5 103.5zM450 1159l170 316h256l-12 -62l-273 -254h-141z" />
<glyph unicode="&#x454;" horiz-adv-x="880" d="M70 350q0 174 52 306t137 220.5t192.5 132.5t218.5 44q106 0 162.5 -18.5t97.5 -41.5l-86 -186q-43 23 -84 29t-90 6q-86 0 -169 -58.5t-130 -169.5h385l-39 -176h-387v-41q0 -98 45 -156.5t155 -58.5q68 0 124.5 22.5t97.5 49.5l53 -160q-72 -59 -170 -91t-197 -32 q-84 0 -151.5 27t-115.5 77t-74.5 119.5t-26.5 155.5z" />
<glyph unicode="&#x455;" horiz-adv-x="811" d="M-2 39l80 201q41 -23 105.5 -40.5t135.5 -17.5q72 0 110 28t40 85q0 41 -24.5 70.5t-62.5 56.5t-81 54.5t-81 63t-62.5 85t-24.5 118.5q0 68 26.5 125.5t75 98.5t117 63.5t154.5 22.5q119 0 196.5 -17.5t122.5 -44.5l-69 -192q-41 18 -99.5 30.5t-121.5 12.5 q-66 0 -104 -22.5t-38 -71.5q0 -33 24.5 -58.5t62.5 -52.5t81 -54.5t81 -66.5t62.5 -89t24.5 -120q0 -170 -110.5 -253t-294.5 -83q-104 0 -191.5 19.5t-134.5 48.5z" />
<glyph unicode="&#x456;" horiz-adv-x="524" d="M55 0l217 1024h252l-217 -1024h-252zM309 1315q0 68 44 104.5t112 36.5q66 0 112 -37t46 -104q0 -66 -46.5 -103.5t-111.5 -37.5q-68 0 -112 37.5t-44 103.5z" />
<glyph unicode="&#x457;" horiz-adv-x="618" d="M78 0l217 1024h252l-217 -1024h-252zM209 1313q0 66 33.5 101.5t91.5 35.5q57 0 91 -36t34 -101q0 -66 -34 -100.5t-91 -34.5q-59 0 -92 34.5t-33 100.5zM504 1313q0 66 32.5 101.5t92.5 35.5q57 0 91 -36t34 -101q0 -66 -34 -100.5t-93 -34.5q-57 0 -90 34.5t-33 100.5z " />
<glyph unicode="&#x458;" horiz-adv-x="499" d="M-229 -408l49 218q51 -4 88 9t62.5 41.5t43 72.5t29.5 100l209 991h254l-227 -1067q-39 -184 -131.5 -281.5t-249.5 -97.5q-63 0 -127 14zM287 1315q0 68 44 104.5t112 36.5q66 0 112 -37t46 -104q0 -66 -46.5 -103.5t-111.5 -37.5q-68 0 -112 37.5t-44 103.5z" />
<glyph unicode="&#x459;" horiz-adv-x="1482" d="M-96 18l78 220q55 -18 98 -2t87 99t93 246.5t117 442.5h657l-84 -381q45 12 101.5 21.5t122.5 9.5q84 0 137 -19.5t82.5 -51.5t40 -71.5t10.5 -80.5q0 -98 -39 -183.5t-110.5 -148t-171 -98t-222.5 -35.5q-84 0 -140 17t-90 45t-48.5 63.5t-14.5 74.5v27.5t4 26.5 l127 573h-184q-51 -190 -99 -343t-105.5 -260.5t-128 -164.5t-165.5 -57q-111 0 -153 30zM868 270q0 -74 99 -73q43 0 81.5 15t68.5 42t48.5 62.5t18.5 78.5q0 53 -28 72.5t-97 19.5q-41 0 -80 -8t-68 -22l-37 -152q-2 -10 -4 -18t-2 -17z" />
<glyph unicode="&#x45a;" horiz-adv-x="1511" d="M31 0l217 1024h252l-86 -393h311l84 393h252l-84 -383q47 12 104.5 22.5t122.5 10.5q84 0 136.5 -19.5t82 -51.5t40 -71.5t10.5 -80.5q0 -98 -39 -183.5t-110 -148t-170 -98t-222 -35.5q-84 0 -139.5 16t-90 44t-50 62.5t-15.5 73.5q0 33 6 64l37 174h-309l-88 -420h-252 zM897 270q0 -74 100 -73q43 0 82 15t69 41t47 61.5t17 78.5q0 53 -27.5 73.5t-97.5 20.5q-41 0 -78.5 -8t-66.5 -22l-39 -154q-2 -10 -4 -17t-2 -16z" />
<glyph unicode="&#x45b;" horiz-adv-x="1034" d="M57 0l226 1065h-144l35 164h143l43 205h252l-45 -205h318l-35 -164h-318l-59 -277h8q70 63 155 108.5t195 45.5q84 0 135.5 -49t51.5 -176q0 -41 -5 -87t-18 -104l-110 -526h-252l104 500q10 41 15.5 73.5t5.5 61.5q0 47 -18.5 71.5t-65.5 24.5q-41 0 -79 -17.5 t-70.5 -45t-59.5 -63.5t-45 -73l-111 -532h-252z" />
<glyph unicode="&#x45c;" horiz-adv-x="966" d="M31 0l217 1024h252l-94 -436l73 26l285 410h276l-299 -389l-118 -78l94 -80l162 -477h-269l-149 424h-90l-88 -424h-252zM539 1159l170 316h256l-12 -62l-273 -254h-141z" />
<glyph unicode="&#x45e;" horiz-adv-x="925" d="M-35 -389l68 201q12 -6 25.5 -8.5t25.5 -2.5q49 0 100.5 47.5t102.5 151.5l-193 1024h289l59 -575l2 -160h13l55 162l279 573h268l-492 -920q-61 -115 -115.5 -211t-109.5 -165.5t-114.5 -108.5t-127.5 -39q-90 0 -135 31zM342 1389l225 53q-4 -80 20.5 -113t75.5 -33 q53 0 93.5 33t68.5 111l178 -51q-49 -133 -153.5 -198t-229.5 -65q-59 0 -112 14.5t-91 46.5t-58.5 81t-16.5 121z" />
<glyph unicode="&#x45f;" horiz-adv-x="1048" d="M80 197q0 76 20 165l142 662h252l-134 -633q-12 -61 -12 -102t16.5 -63.5t57.5 -22.5q35 0 70.5 17.5t68.5 45t60.5 61t46.5 66.5l131 631h252l-129 -614q-10 -41 -17.5 -96.5t-13.5 -114t-8 -111.5t0 -88h-203l-10 184h-8q-29 -39 -67 -76.5t-84 -68.5t-100.5 -49.5 t-115.5 -18.5q-96 0 -155.5 48.5t-59.5 177.5zM295 -410l92 338h186l-45 -338h-233z" />
<glyph unicode="&#x462;" horiz-adv-x="1282" d="M158 1096l49 227h276l35 162h266l-34 -162h391l-51 -227h-390l-41 -189q23 4 78.5 10.5t100.5 6.5q94 0 171.5 -25t134 -72t88.5 -117.5t32 -164.5q0 -147 -50.5 -254t-140.5 -175.5t-214 -102t-273 -33.5q-29 0 -75 1t-99.5 5t-108.5 10t-98 18l229 1082h-276zM518 242 q20 -6 56 -9.5t75 -3.5q61 0 121.5 14.5t108 46.5t76 84t28.5 128q0 106 -66.5 145t-173.5 39q-12 0 -32.5 -2t-40 -4t-37 -5t-25.5 -5z" />
<glyph unicode="&#x463;" horiz-adv-x="1445" d="M37 0l217 1024h190l-10 -172h8q23 37 51.5 73t66.5 64.5t89 46t117 17.5q84 0 132 -46t48 -153q0 -35 -6 -74t-16 -86l-13 -51q47 12 102.5 21.5t121.5 9.5q84 0 137 -19.5t82.5 -51.5t40 -71.5t10.5 -80.5q0 -98 -39 -183.5t-109.5 -148t-170 -98t-222.5 -35.5 q-100 0 -161.5 22.5t-93 59t-39 82t2.5 90.5l89 395q18 80 18 125q0 72 -55 71q-29 0 -57.5 -19t-55.5 -50t-50.5 -69t-41.5 -75l-131 -618h-252zM836 303q-23 -106 92 -106q43 0 82 15t69.5 41t48 61.5t17.5 78.5q0 53 -27.5 73.5t-97.5 20.5q-41 0 -79 -8t-67 -22z" />
<glyph unicode="&#x472;" horiz-adv-x="1318" d="M119 537q0 190 50 359t145.5 295t229.5 198.5t304 72.5q109 0 200 -32.5t155.5 -101t100 -173t35.5 -248.5q0 -193 -51 -362.5t-144 -297.5t-223 -202t-290 -74q-242 0 -376 142.5t-136 423.5zM399 545q0 -147 60.5 -235.5t189.5 -88.5q66 0 123 29t104.5 81t83 121.5 t58.5 153.5h-617q-2 -16 -2 -30.5v-30.5zM438 834h619q0 16 1 33.5t1 35.5q0 162 -67.5 235.5t-178.5 73.5q-66 0 -124 -27.5t-105 -78.5t-84 -121t-62 -151z" />
<glyph unicode="&#x473;" horiz-adv-x="1015" d="M70 332q0 162 46 295t123.5 227t179 146.5t212.5 52.5q98 0 165.5 -31t108.5 -82t59.5 -116.5t18.5 -135.5q0 -160 -45 -292t-122 -226t-177 -146.5t-211 -52.5q-96 0 -163.5 32t-110.5 83t-63.5 115.5t-20.5 130.5zM330 367q0 -184 133 -185q66 0 123 70t94 174h-348 q-2 -16 -2 -30.5v-28.5zM367 592h350q6 39 6 80q0 82 -27.5 126t-103.5 44q-33 0 -65.5 -19.5t-61.5 -53.5t-54.5 -79t-43.5 -98z" />
<glyph unicode="&#x474;" horiz-adv-x="1236" d="M207 1434h291l92 -842l-17 -242h9l88 244l231 469q57 119 108.5 194.5t103.5 118.5t109.5 59.5t127.5 16.5q72 0 122 -13.5t87 -33.5l-109 -234q-29 16 -54.5 23.5t-54.5 7.5q-47 0 -87 -38t-83 -120l-565 -1054h-192z" />
<glyph unicode="&#x475;" horiz-adv-x="948" d="M82 1024h276l68 -537v-157h8l62 162l77 145q57 111 106.5 188.5t98.5 125.5t101.5 69.5t115.5 21.5q47 0 87 -9t67 -25l-80 -213q-16 6 -30.5 11t-30.5 5q-35 0 -72 -29.5t-86 -107.5l-412 -684h-155z" />
<glyph unicode="&#x48a;" horiz-adv-x="1398" d="M41 0l303 1434h266l-161 -766l-62 -189h12l136 203l663 752h205l-254 -1192h227l-12 -64l-279 -444h-184l146 266h-213l163 780l60 183h-13l-131 -197l-667 -766h-205zM567 1749l221 41q-4 -57 28 -90t89 -33q133 0 174 121l234 -35q-43 -125 -152.5 -186.5t-275.5 -61.5 q-80 0 -139.5 19.5t-98.5 52.5t-58.5 77t-21.5 95z" />
<glyph unicode="&#x48b;" horiz-adv-x="1148" d="M80 197q0 76 20 165l142 662h252l-134 -633q-12 -61 -12 -102t16.5 -63.5t57.5 -22.5q35 0 70.5 17.5t68.5 45t60.5 61t46.5 66.5l131 631h252l-129 -614q-8 -35 -15.5 -77t-13.5 -91h237l-12 -64l-278 -444h-185l146 266h-121l-10 184h-8q-29 -39 -67 -76.5t-84 -68.5 t-100.5 -49.5t-115.5 -18.5q-96 0 -155.5 48.5t-59.5 177.5zM375 1389l225 53q-4 -80 20.5 -113t75.5 -33q53 0 93 33t69 111l180 -51q-51 -133 -155.5 -198t-229.5 -65q-59 0 -112.5 14.5t-91 46.5t-58 81t-16.5 121z" />
<glyph unicode="&#x48c;" horiz-adv-x="1282" d="M158 1096l49 227h276l35 162h266l-34 -162h391l-51 -227h-390l-41 -189q23 4 78.5 10.5t100.5 6.5q94 0 171.5 -25t134 -72t88.5 -117.5t32 -164.5q0 -147 -50.5 -254t-140.5 -175.5t-214 -102t-273 -33.5q-29 0 -75 1t-99.5 5t-108.5 10t-98 18l229 1082h-276zM518 242 q20 -6 56 -9.5t75 -3.5q61 0 121.5 14.5t108 46.5t76 84t28.5 128q0 106 -66.5 145t-173.5 39q-12 0 -32.5 -2t-40 -4t-37 -5t-25.5 -5z" />
<glyph unicode="&#x48d;" horiz-adv-x="950" d="M45 838l41 186h170l92 410h252l-94 -410h358l-41 -186h-360l-45 -195q45 12 101 21.5t122 9.5q84 0 137 -19.5t83 -51.5t40 -71.5t10 -80.5q0 -98 -38.5 -183.5t-110.5 -148t-171 -98t-222 -35.5q-98 0 -160 22.5t-93.5 59t-38.5 82t3 90.5l133 598h-168zM342 303 q-10 -51 11.5 -79.5t80.5 -28.5q43 0 82 15t68.5 42t48 62.5t18.5 78.5q0 53 -27.5 73.5t-97.5 20.5q-41 0 -78.5 -8t-66.5 -22z" />
<glyph unicode="&#x48e;" horiz-adv-x="1126" d="M41 0l301 1419q86 16 183.5 25.5t195.5 9.5q104 0 193.5 -23.5t156 -72.5t103 -126t36.5 -183q0 -188 -75.5 -305t-194.5 -179l84 -174l-182 -88l-97 199q-45 -10 -90 -13.5t-92 -3.5h-31.5t-45 1t-45 3.5t-31.5 4.5l-103 -494h-266zM463 735q8 -2 22.5 -4t32 -3t32.5 -1 h23q29 0 56.5 2t56.5 8l-82 178l115 56l86 -191q57 35 91 91.5t34 144.5q0 59 -19.5 98t-52.5 60.5t-77 29.5t-93 8q-37 0 -70.5 -3t-56.5 -7z" />
<glyph unicode="&#x48f;" horiz-adv-x="1036" d="M-53 -410l303 1434h186l-10 -180h8q29 39 66 76.5t82 66.5t96 47.5t110 18.5q104 0 168 -72t64 -225q0 -223 -73 -394.5t-189 -271.5l71 -127l-167 -123l-84 150q-61 -18 -123 -19q-53 0 -100.5 10.5t-69.5 26.5l-88 -418h-250zM328 217q51 -35 114 -35q33 0 68 13 l-61 110l100 70l59 -109q68 72 110 188.5t42 252.5q0 59 -27.5 97t-75.5 38q-37 0 -71.5 -18.5t-65.5 -46t-55.5 -62.5t-42.5 -68z" />
<glyph unicode="&#x490;" horiz-adv-x="892" d="M41 0l303 1434h580l106 311h170l-119 -561h-524l-250 -1184h-266z" />
<glyph unicode="&#x491;" horiz-adv-x="774" d="M31 0l217 1024h418l106 311h170l-113 -532h-366l-170 -803h-262z" />
<glyph unicode="&#x492;" horiz-adv-x="1001" d="M49 602l41 191h184l138 641h790l-53 -250h-524l-84 -391h438l-39 -191h-438l-127 -602h-266l127 602h-187z" />
<glyph unicode="&#x493;" horiz-adv-x="851" d="M14 397l35 164h146l98 463h618l-39 -211h-366l-55 -252h335l-34 -164h-338l-86 -397h-252l84 397h-146z" />
<glyph unicode="&#x494;" horiz-adv-x="1146" d="M41 0l303 1434h791l-54 -250h-524l-88 -416q37 14 101.5 29.5t156.5 15.5q168 0 265.5 -97.5t97.5 -285.5q0 -123 -32 -247t-103.5 -222t-187.5 -159.5t-284 -61.5q-106 0 -133 8l51 240q27 -6 111 -6q74 0 130 31.5t93 85t55.5 124t18.5 148.5q0 104 -53.5 148 t-153.5 44q-47 0 -101.5 -11t-82.5 -26l-111 -526h-266z" />
<glyph unicode="&#x495;" horiz-adv-x="974" d="M37 0l217 1024h618l-43 -211h-368l-62 -291q35 12 100.5 31.5t170.5 19.5q127 0 198.5 -70.5t71.5 -199.5q0 -193 -44 -330t-122 -225t-185.5 -130t-234.5 -42q-51 0 -77.5 3t-40.5 9l49 207q14 -4 39.5 -6t68.5 -2q49 0 99.5 25.5t92.5 78t68.5 132t26.5 190.5 q0 78 -42 113.5t-103 35.5q-59 0 -106.5 -12t-72.5 -26l-67 -324h-252z" />
<glyph unicode="&#x496;" horiz-adv-x="1681" d="M-94 0l483 629l125 80l-78 75l-200 650h286l168 -613h82l129 613h254l-135 -637l70 22l399 615h315l-448 -629l-109 -70l86 -86l142 -399h161l-108 -506h-187l25 256h-98l-201 623h-84l-131 -623h-254l137 647l-67 -24l-437 -623h-325z" />
<glyph unicode="&#x497;" horiz-adv-x="1576" d="M-51 27l67 204q37 -10 66 -10q76 0 133 69.5t90 235.5q8 41 10 74t2 62q0 104 -42 138t-113 21l-25 183q92 25 164 24q123 0 186.5 -71.5t63.5 -225.5q0 -29 -2 -58.5t-6 -64.5h155l88 416h242l-90 -416h143q29 119 71 200t93 131t108.5 71.5t114.5 21.5q63 0 134 -26 l-54 -185q-23 6 -43 6q-63 0 -118.5 -60t-90.5 -218q-18 -80 -18 -148q0 -53 10 -94t31.5 -67.5t52.5 -34.5t72 6l80 -59l-111 -385h-192l59 227q-63 4 -108.5 32.5t-73 76t-41 109.5t-13.5 132q0 20 1.5 38.5t3.5 39.5h-150l-88 -422h-242l90 422h-149q-31 -117 -75 -200 t-96 -134t-110.5 -74.5t-119.5 -23.5q-41 0 -80 10t-80 27z" />
<glyph unicode="&#x498;" horiz-adv-x="1038" d="M-35 47l119 244q41 -23 119 -46.5t192 -23.5q49 0 102.5 12.5t96.5 40t70.5 72.5t27.5 111q0 100 -70.5 138t-201.5 38h-131l47 221h47q18 0 43 1t50.5 3t50 4t40.5 4q41 6 82 19.5t73 38t52.5 59.5t20.5 84q0 66 -50.5 103.5t-148.5 37.5q-86 0 -165 -24.5t-130 -46.5 l-18 237q25 12 66.5 26.5t94 27t113.5 21.5t123 9q86 0 157.5 -19.5t125 -58.5t83 -97t29.5 -134q0 -141 -76.5 -247.5t-228.5 -141.5v-10q39 -12 76 -34t64.5 -56.5t45 -84t17.5 -116.5q0 -113 -40 -198t-110.5 -145.5t-167 -94t-206.5 -44.5l-52 -335h-237l88 333 q-96 8 -170 28t-113 44z" />
<glyph unicode="&#x499;" horiz-adv-x="833" d="M-41 59l94 195q41 -27 101.5 -46.5t136.5 -19.5q96 0 149.5 41t53.5 107q0 47 -39 66.5t-156 19.5h-94l39 186h118q33 0 68 10.5t61.5 28t44 42t17.5 52.5q0 49 -35 69.5t-112 20.5q-68 0 -115 -12t-98 -35l-43 189q33 18 75.5 30.5t91 21.5t98.5 13t97 4 q164 0 232.5 -58t68.5 -161q0 -49 -16.5 -93t-45 -79t-66.5 -61.5t-81 -40.5v-8q86 -20 117 -72.5t31 -116.5q0 -152 -101.5 -246t-263.5 -118l-53 -346h-238l88 340q-72 10 -131 30.5t-94 46.5z" />
<glyph unicode="&#x49a;" horiz-adv-x="1243" d="M41 0l303 1434h266l-135 -635l64 22l485 613h319l-516 -609l-122 -71l90 -80l194 -424h217l-106 -506h-189l25 256h-127l-277 612h-96l-129 -612h-266z" />
<glyph unicode="&#x49b;" horiz-adv-x="978" d="M31 0l217 1024h252l-94 -436l73 26l285 410h276l-299 -389l-118 -78l94 -80l90 -266h180l-131 -444h-192l61 233h-115l-149 424h-90l-88 -424h-252z" />
<glyph unicode="&#x49c;" horiz-adv-x="1415" d="M41 0l303 1434h266l-135 -635l96 8l58 272h180l-53 -256l32 4l441 607h311l-463 -605l-121 -75l93 -80l243 -674h-284l-215 612h-82l-56 -260h-180l55 260h-94l-129 -612h-266z" />
<glyph unicode="&#x49d;" horiz-adv-x="1105" d="M31 0l217 1024h252l-94 -436l88 8l51 246h147l-49 -230l39 4l262 408h268l-251 -389l-138 -78l92 -80l115 -477h-266l-98 424h-62l-51 -242h-147l51 242h-86l-88 -424h-252z" />
<glyph unicode="&#x49e;" horiz-adv-x="1366" d="M160 1104l43 213h256l24 117h265l-25 -117h182l-39 -191h-184l-68 -327l105 28l465 607h305l-494 -607l-147 -73l104 -80l287 -674h-291l-260 612h-115l-129 -612h-264l234 1104h-254z" />
<glyph unicode="&#x49f;" horiz-adv-x="952" d="M37 0l235 1118h-155l35 164h155l33 152h252l-33 -152h303l-35 -164h-303l-112 -530l75 26l289 410h281l-305 -412l-123 -77l92 -78l156 -457h-271l-147 424h-82l-88 -424h-252z" />
<glyph unicode="&#x4a0;" horiz-adv-x="1413" d="M174 1184l53 250h576l-135 -635l61 22l488 613h319l-516 -607l-123 -73l90 -80l311 -674h-297l-276 612h-96l-129 -612h-267l252 1184h-311z" />
<glyph unicode="&#x4a1;" horiz-adv-x="1026" d="M49 813l45 211h465l-92 -436l59 28l316 408h288l-315 -389l-131 -78l94 -80l160 -477h-264l-148 424h-94l-90 -424h-252l174 813h-215z" />
<glyph unicode="&#x4a2;" horiz-adv-x="1363" d="M41 0l303 1434h266l-123 -584h498l123 584h266l-250 -1184h170l-108 -506h-187l25 256h-219l127 600h-498l-127 -600h-266z" />
<glyph unicode="&#x4a3;" horiz-adv-x="1083" d="M37 0l217 1024h252l-84 -383h319l82 383h254l-174 -813h156l-131 -444h-193l62 233h-191l86 399h-319l-84 -399h-252z" />
<glyph unicode="&#x4a4;" horiz-adv-x="1656" d="M41 0l303 1434h266l-123 -584h498l123 584h790l-53 -250h-524l-250 -1184h-266l127 600h-498l-127 -600h-266z" />
<glyph unicode="&#x4a5;" horiz-adv-x="1339" d="M37 0l217 1024h252l-84 -383h319l82 383h621l-45 -211h-367l-172 -813h-254l86 399h-319l-84 -399h-252z" />
<glyph unicode="&#x4a6;" horiz-adv-x="1875" d="M41 0l303 1434h1008l-142 -666q35 12 100.5 28.5t159.5 16.5q70 0 135.5 -20.5t116 -66.5t80 -117.5t29.5 -176.5q0 -135 -34 -260t-107.5 -221t-189.5 -153.5t-281 -57.5q-55 0 -84 2t-43 6l51 240q12 -4 43 -5t71 -1q74 0 129.5 31.5t91 85t54 123t18.5 147.5 q0 57 -15 95t-43 60.5t-67 30.5t-86 8q-47 2 -100 -11t-80 -26l-110 -526h-267l250 1184h-475l-250 -1184h-266z" />
<glyph unicode="&#x4a7;" horiz-adv-x="1540" d="M37 0l217 1024h190l-10 -180h8q27 33 63 69.5t83 67.5t105.5 51.5t131.5 20.5q92 0 147.5 -50.5t55.5 -166.5q0 -31 -3 -66t-13 -76l-33 -164q35 12 90 27.5t129 15.5q147 0 228 -72.5t81 -219.5q0 -172 -42 -303.5t-115.5 -220.5t-175 -134t-220.5 -45q-45 0 -80.5 7 t-50.5 14l49 204q37 -14 109 -14q49 0 97 28.5t85 82t60.5 129t23.5 172.5q0 86 -31.5 123.5t-123.5 37.5q-43 0 -87 -13t-71 -25l-70 -324h-252l136 635q12 57 12 100q0 45 -18.5 70.5t-67.5 25.5q-37 0 -74 -18t-69.5 -49t-61.5 -69t-49 -77l-131 -618h-252z" />
<glyph unicode="&#x4a8;" horiz-adv-x="1718" d="M119 565q0 225 64.5 394t173 281t250 167t292.5 55l-53 -250q-86 0 -167 -44t-142.5 -123.5t-99.5 -193.5t-38 -253q0 -104 23.5 -177t64.5 -117t96.5 -63.5t121.5 -19.5q23 0 51 5t49 16q-18 16 -42 51t-44.5 85t-34.5 117.5t-14 147.5q0 190 53 330.5t140 233.5 t200 139.5t231 46.5q68 0 138.5 -19.5t130 -68t97.5 -131t38 -209.5q0 -117 -29 -229.5t-82 -210t-131 -175.5t-178 -127q10 -4 21.5 -3t23.5 1q59 0 116.5 16.5t98.5 45.5l35 -220q-51 -41 -122 -66.5t-175 -25.5q-78 0 -153.5 22.5t-125.5 76.5q-76 -49 -154.5 -74 t-185.5 -25q-164 0 -268 58.5t-163.5 146.5t-83 192.5t-23.5 196.5zM950 666q0 -35 4 -81t17.5 -95.5t40 -95.5t69.5 -81q70 39 131.5 101.5t107.5 140.5t71.5 168t25.5 188q0 113 -39 172.5t-129 59.5q-49 0 -102 -31t-97 -90t-72 -149t-28 -207z" />
<glyph unicode="&#x4a9;" horiz-adv-x="1368" d="M70 389q0 127 41 245t117.5 208t186 147.5t244.5 63.5l-47 -226q-55 -4 -106 -36.5t-90 -88t-62.5 -129t-23.5 -159.5q0 -61 15 -104.5t40 -71t57.5 -41t69.5 -13.5q31 0 64.5 8.5t50.5 18.5q-35 35 -65 105.5t-30 168.5q0 88 35 182.5t99.5 170t154.5 125t201 49.5 q158 0 235.5 -79t77.5 -233q0 -86 -27.5 -164.5t-71.5 -145t-101.5 -118t-114.5 -84.5q20 -20 51 -26t64.5 -3t64.5 11t51 18l-16 -163q-27 -23 -84 -38.5t-113 -15.5q-86 0 -147.5 23.5t-112.5 79.5q-14 -14 -43.5 -31.5t-70.5 -33t-93.5 -27t-113.5 -11.5 q-182 0 -284.5 109.5t-102.5 308.5zM774 479q0 -59 18.5 -118.5t59.5 -94.5q37 20 77 62.5t71.5 95.5t53 114.5t21.5 125.5q0 78 -21.5 106.5t-70.5 28.5q-43 0 -81 -24.5t-66.5 -67.5t-45 -101.5t-16.5 -126.5z" />
<glyph unicode="&#x4aa;" horiz-adv-x="1099" d="M119 557q0 242 67.5 413t178 280.5t253 160.5t291.5 51q117 0 200 -17.5t130 -39.5l-104 -238q-41 23 -98.5 34t-145.5 11q-104 0 -194.5 -43t-156 -122.5t-103.5 -194.5t-38 -260q0 -174 87 -271.5t233 -97.5q92 0 152.5 19.5t113.5 48.5l4 -232q-113 -74 -274 -86 l-51 -331h-238l90 344q-100 20 -175 72.5t-124 128t-73.5 170t-24.5 200.5z" />
<glyph unicode="&#x4ab;" horiz-adv-x="843" d="M70 324q0 172 49 307t130 228t184.5 143.5t211.5 50.5q96 0 152.5 -18.5t101.5 -41.5l-94 -200q-39 23 -81 30.5t-91 7.5q-55 0 -107.5 -35.5t-94.5 -94t-66.5 -136.5t-24.5 -159q0 -104 45 -158.5t119 -54.5q61 0 113.5 19t93.5 44l47 -172q-53 -39 -118 -66.5 t-132 -40.5l-51 -335h-238l90 344q-63 16 -108 49t-75 78t-43 99t-13 112z" />
<glyph unicode="&#x4ac;" horiz-adv-x="1120" d="M197 1184l53 250h1059l-52 -250h-397l-198 -934h172l-109 -506h-186l24 256h-219l250 1184h-397z" />
<glyph unicode="&#x4ad;" horiz-adv-x="1630" d="M37 0l217 1024h197l-13 -180h8q31 33 67 69.5t81 67.5t100.5 51.5t120.5 20.5q82 0 124 -59.5t38 -157.5q31 39 70.5 77.5t86 69.5t98.5 50.5t107 19.5q94 0 144.5 -44t50.5 -165q0 -88 -31 -230l-86 -403h189l-131 -444h-193l61 233h-221l121 575q10 47 16.5 88.5 t6.5 71.5q0 47 -17.5 71.5t-58.5 24.5q-33 0 -66.5 -19t-64.5 -49t-56.5 -64.5t-39.5 -65.5l-132 -633h-251l116 557q12 57 19.5 101t7.5 79q0 94 -72 94q-35 0 -69.5 -18t-64.5 -47t-55.5 -62.5t-41.5 -64.5l-131 -639h-252z" />
<glyph unicode="&#x4ae;" horiz-adv-x="1165" d="M217 1434h295l133 -539l-4 -152h8l64 156l358 535h305l-637 -899l-112 -535h-265l111 532z" />
<glyph unicode="&#x4af;" horiz-adv-x="917" d="M82 1024h283l53 -608l-8 -191h10l69 195l291 604h285l-571 -1026l-88 -408h-252l86 408z" />
<glyph unicode="&#x4b0;" horiz-adv-x="1165" d="M147 416l41 186h265l-236 832h295l133 -539l-4 -152h8l64 156l358 535h305l-590 -832h273l-41 -186h-303l-88 -416h-265l87 416h-302z" />
<glyph unicode="&#x4b1;" horiz-adv-x="948" d="M6 -164l35 164h229l-157 1024h282l54 -608l-9 -191h11l69 195l291 604h285l-572 -1024h228l-35 -164h-228l-53 -246h-252l52 246h-230z" />
<glyph unicode="&#x4b2;" horiz-adv-x="1306" d="M-49 0l573 731l-231 703h289l123 -414l20 -146l76 146l305 414h319l-538 -693l170 -491h198l-108 -506h-186l24 256h-127l-147 442l-25 152l-82 -152l-330 -442h-323z" />
<glyph unicode="&#x4b3;" horiz-adv-x="1015" d="M-84 0l424 524l-184 500h284l78 -219l27 -143l90 143l178 219h293l-399 -492l124 -321h158l-131 -444h-192l61 233h-94l-98 246l-31 151l-92 -151l-203 -246h-293z" />
<glyph unicode="&#x4b4;" horiz-adv-x="1644" d="M197 1184l53 250h938l-53 -250h-277l-199 -934h471l252 1184h265l-250 -1184h172l-109 -506h-186l24 256h-956l250 1184h-395z" />
<glyph unicode="&#x4b5;" horiz-adv-x="1097" d="M80 197q0 76 20 165l142 662h252l-134 -631q-12 -61 -12 -104q0 -41 16.5 -63.5t57.5 -22.5q35 0 70.5 17.5t68.5 45t60.5 61t46.5 66.5l131 631h252l-140 -657q-12 -59 -12 -95q0 -35 14.5 -49t51.5 -14h102l-125 -442h-194l63 233q-88 0 -126 48t-21 136h-9 q-23 -35 -58.5 -72.5t-81.5 -68.5t-102.5 -51.5t-117.5 -20.5q-96 0 -155.5 48.5t-59.5 177.5zM346 1159l39 189h630l-39 -189h-630z" />
<glyph unicode="&#x4b6;" horiz-adv-x="1277" d="M199 809q0 63 14 129l104 496h265l-95 -445q-6 -27 -7 -49t-1 -45q0 -80 38 -119t124 -39q74 0 138.5 16.5t109.5 51.5l133 629h266l-250 -1184h170l-108 -506h-187l25 256h-219l123 578q-29 -14 -59.5 -28.5t-67.5 -27t-83 -19.5t-104 -7q-72 0 -132 18t-104 57 t-68.5 98.5t-24.5 139.5z" />
<glyph unicode="&#x4b7;" horiz-adv-x="1015" d="M109 551q0 59 14 125l74 348h252l-50 -233q-10 -43 -15 -78t-5 -64q0 -57 23.5 -85.5t78.5 -28.5q59 0 103.5 18t72.5 41l95 430h252l-175 -813h168l-131 -444h-192l61 233h-200l83 401q-35 -23 -99 -50t-163 -27q-53 0 -98 11t-79 37.5t-52 69.5t-18 109z" />
<glyph unicode="&#x4b8;" horiz-adv-x="1267" d="M201 811q0 63 14 133l102 490h265l-95 -445q-12 -55 -12 -98q0 -66 30 -104.5t101 -49.5l51 240h183l-49 -229q51 10 97 24t75 33l135 629h264l-303 -1434h-264l120 578q-29 -16 -72.5 -34t-103.5 -30l-55 -264h-180l51 246q-164 2 -259 78.5t-95 236.5z" />
<glyph unicode="&#x4b9;" horiz-adv-x="1058" d="M109 553q0 59 14 123l74 348h252l-52 -242q-8 -39 -12 -69.5t-4 -57.5q0 -53 18.5 -82.5t63.5 -37.5l55 256h148l-54 -244q37 10 66 23.5t47 25.5l90 428h254l-217 -1024h-254l86 401q-35 -23 -113 -47l-49 -233h-147l43 205q-12 -2 -25.5 -2h-27.5q-117 0 -186.5 52 t-69.5 177z" />
<glyph unicode="&#x4ba;" horiz-adv-x="1193" d="M41 0l303 1434h266l-123 -578q57 31 130 56.5t184 25.5q66 0 125 -17.5t105 -55.5t72.5 -97t26.5 -145q0 -63 -14 -129l-104 -494h-264l96 449q4 25 7 46t3 42q0 160 -166 159q-76 0 -137.5 -19.5t-110.5 -49.5l-133 -627h-266z" />
<glyph unicode="&#x4bb;" horiz-adv-x="1081" d="M37 0l303 1434h252l-129 -590h8q27 33 64.5 69.5t84 67.5t100.5 51.5t118 20.5q98 0 152 -49.5t54 -174.5q0 -76 -24 -192l-135 -637h-252l123 582q20 90 20 149q0 53 -20.5 76.5t-63.5 23.5q-39 0 -82 -24.5t-82 -61t-70.5 -78.5t-47.5 -77l-121 -590h-252z" />
<glyph unicode="&#x4bc;" horiz-adv-x="1558" d="M119 856q0 66 22.5 122t53.5 89h227q-33 -25 -53.5 -58.5t-20.5 -70.5q0 -18 4 -37.5t19.5 -34t45 -23.5t79.5 -7q37 156 101.5 273.5t152.5 196t196.5 117.5t229.5 39q106 0 184 -33.5t130 -93t77.5 -142.5t25.5 -181q0 -92 -21.5 -194.5t-66.5 -213.5h-776 q-2 -16 -3 -34.5t-1 -34.5q0 -63 14.5 -120t48 -100t88 -68.5t134.5 -25.5q86 0 169 27.5t154 75.5l17 -238q-90 -57 -180.5 -86t-211.5 -29q-125 0 -218 40t-155.5 114t-93 176t-30.5 229v36t2 38h-68q-145 0 -210.5 72t-65.5 180zM766 836h547q12 41 19 83t7 82 q0 45 -10 87t-33.5 74t-60.5 50.5t-90 18.5q-131 0 -231.5 -99.5t-147.5 -295.5z" />
<glyph unicode="&#x4bd;" horiz-adv-x="1177" d="M10 664q0 74 40 130t87 80h215q-45 -25 -83 -64.5t-40 -92.5q0 -16 4.5 -33.5t15.5 -32t32.5 -24t56.5 -9.5q35 102 93 183.5t130 136.5t153 85t160 30q84 0 144.5 -21.5t99.5 -59.5t57.5 -87t18.5 -105q0 -84 -43 -147.5t-120 -105.5t-185.5 -63.5t-237.5 -21.5 q-16 0 -30.5 1t-30.5 1q-4 -25 -6 -44t-2 -35q0 -92 48 -137.5t136 -45.5q90 0 161.5 27t108.5 53l54 -164q-63 -53 -164 -90t-234 -37q-166 0 -261 97.5t-95 271.5q0 25 1 49.5t3 48.5h-18q-72 0 -122.5 18.5t-83 49.5t-48 71.5t-15.5 86.5zM584 604q57 0 121.5 4t120 19.5 t92 45t36.5 81.5q0 31 -22.5 62.5t-93.5 31.5q-90 0 -156.5 -70t-97.5 -174z" />
<glyph unicode="&#x4be;" horiz-adv-x="1558" d="M119 856q0 66 22.5 122t53.5 89h227q-33 -25 -53.5 -58.5t-20.5 -70.5q0 -18 4 -37.5t19.5 -34t45 -23.5t79.5 -7q37 156 101.5 273.5t152.5 196t196.5 117.5t229.5 39q106 0 184 -33.5t130 -93t77.5 -142.5t25.5 -181q0 -92 -21.5 -194.5t-66.5 -213.5h-776 q-2 -16 -3 -34.5t-1 -34.5q0 -63 14.5 -120t48 -100t88 -67.5t134.5 -24.5q86 0 169 28t154 75l17 -240q-78 -49 -156 -76.5t-174 -36.5l-51 -331h-238l90 344q-182 41 -271 184t-89 360v36t2 38h-68q-145 0 -210.5 72t-65.5 180zM766 836h547q12 41 19 83t7 82q0 45 -10 87 t-33.5 74t-60.5 50.5t-90 18.5q-131 0 -231.5 -99.5t-147.5 -295.5z" />
<glyph unicode="&#x4bf;" horiz-adv-x="1177" d="M10 664q0 74 40 130t87 80h215q-45 -25 -83 -64.5t-40 -92.5q0 -16 4.5 -33.5t15.5 -32t32.5 -24t56.5 -9.5q35 102 93 183.5t130 136.5t153 85t160 30q84 0 144.5 -21.5t99.5 -59.5t57.5 -87t18.5 -105q0 -84 -43 -147.5t-120 -105.5t-185.5 -63.5t-237.5 -21.5 q-16 0 -30.5 1t-30.5 1q-4 -25 -6 -44t-2 -35q0 -92 48 -137.5t136 -45.5q90 0 161.5 27t108.5 53l54 -164q-51 -43 -126 -75.5t-173 -45.5l-52 -335h-237l88 342q-121 27 -187.5 118t-66.5 238q0 25 1 49.5t3 48.5h-18q-72 0 -122.5 18.5t-83 49.5t-48 71.5t-15.5 86.5z M584 604q57 0 121.5 4t120 19.5t92 45t36.5 81.5q0 31 -22.5 62.5t-93.5 31.5q-90 0 -156.5 -70t-97.5 -174z" />
<glyph unicode="&#x4c0;" horiz-adv-x="569" d="M72 0l303 1434h264l-303 -1434h-264z" />
<glyph unicode="&#x4c3;" horiz-adv-x="1210" d="M41 0l303 1434h266l-135 -635l66 24l485 611h317l-495 -578l-135 -78h98q31 -4 76 -20.5t85 -57.5t68.5 -109.5t28.5 -176.5v-58q0 -158 -43 -297t-123 -244.5t-195.5 -167t-261.5 -61.5h-30.5t-30.5 2l49 230q98 0 168 49t114 128t64.5 177.5t20.5 196.5q0 80 -20.5 128 t-59.5 73.5t-93.5 33.5t-123.5 8h-68l-129 -612h-266z" />
<glyph unicode="&#x4c4;" horiz-adv-x="983" d="M37 0l217 1024h252l-96 -444l71 28l318 416h278l-323 -403l-115 -66l78 -4q84 -27 119.5 -111t35.5 -188q0 -80 -18 -160l-8 -35q-53 -250 -168 -365.5t-279 -115.5q-66 0 -125 14l50 209q10 -2 17 -2h17q183 -4 238 258q10 45 13 84t3 72q0 188 -166 203h-69l-88 -414 h-252z" />
<glyph unicode="&#x4c5;" horiz-adv-x="1292" d="M-98 14l80 242q10 -4 21 -6t22 -2q35 -2 70.5 16.5t66.5 59.5q37 45 78 131t85 221t92 321.5t101 436.5h266h271h266l-254 -1192h201l-13 -64l-278 -444h-184l145 266h-184l250 1184h-287q-47 -195 -89 -354.5t-84 -286.5t-89 -225.5t-103 -172.5q-37 -49 -76.5 -79.5 t-79.5 -48t-77 -24.5t-70 -7q-94 0 -147 28z" />
<glyph unicode="&#x4c6;" horiz-adv-x="1089" d="M-96 18l78 222q35 -10 59 -11q41 2 77 37t74.5 124t82.5 242.5t102 391.5h661l-168 -782h201l-12 -64l-279 -444h-184l145 266h-172l174 813h-188q-51 -190 -99 -343t-105.5 -260.5t-128 -164.5t-165.5 -57q-111 0 -153 30z" />
<glyph unicode="&#x4c7;" horiz-adv-x="1277" d="M41 0l303 1434h266l-123 -584h498l123 584h266l-303 -1434q-47 -221 -134 -322.5t-247 -101.5q-57 0 -125 12l47 230q51 -4 84 5t53.5 32.5t33 59.5t22.5 85l127 600h-498l-127 -600h-266z" />
<glyph unicode="&#x4c8;" horiz-adv-x="1067" d="M37 0l217 1024h252l-84 -383h319l82 383h254l-227 -1067q-41 -186 -130 -284.5t-243 -98.5q-29 0 -58.5 3t-62.5 11l47 228q49 -4 83 6t57.5 33.5t38 60.5t24.5 86l86 397h-319l-84 -399h-252z" />
<glyph unicode="&#x4c9;" horiz-adv-x="1343" d="M41 0l303 1434h266l-123 -584h498l123 584h266l-254 -1192h197l-12 -64l-279 -444h-184l145 266h-182l127 600h-498l-127 -600h-266z" />
<glyph unicode="&#x4ca;" d="M31 0l217 1024h252l-84 -383h319l82 383h254l-168 -782h195l-13 -64l-278 -444h-184l145 266h-168l86 399h-319l-84 -399h-252z" />
<glyph unicode="&#x4cb;" horiz-adv-x="1193" d="M199 809q0 63 14 129l104 496h265l-95 -445q-6 -27 -7 -49t-1 -45q0 -80 38 -119t124 -39q74 0 138.5 16.5t109.5 51.5l133 629h266l-303 -1434h-217l-84 -256h-186l104 506h170l70 328q-29 -14 -59.5 -28.5t-67.5 -27t-83 -19.5t-104 -7q-72 0 -132 18t-104 57 t-68.5 98.5t-24.5 139.5z" />
<glyph unicode="&#x4cc;" horiz-adv-x="989" d="M109 575q0 27 3 58t11 65l70 326h251l-45 -211q-8 -39 -12 -69.5t-4 -57.5q0 -53 22.5 -80.5t79.5 -27.5t102.5 16t76.5 37l84 393h251l-217 -1024h-245l-60 -233h-213l113 434h194l50 223q-35 -23 -99.5 -45.5t-167.5 -22.5q-117 0 -181 51.5t-64 167.5z" />
<glyph unicode="&#x4cd;" horiz-adv-x="1636" d="M41 0l303 1434h236l215 -656l26 -164h10l95 168l483 652h256l-254 -1192h201l-13 -64l-278 -444h-184l145 266h-184l157 743l91 283h-13l-135 -231l-403 -531h-84l-193 537l-37 225h-10l-20 -281l-158 -745h-252z" />
<glyph unicode="&#x4ce;" horiz-adv-x="1378" d="M31 0l217 1024h250l137 -385l31 -129h6l84 133l288 381h279l-168 -782h205l-12 -64l-279 -444h-184l145 266h-166l99 469l61 213h-10l-115 -176l-252 -318h-92l-131 318l-37 176h-12l-19 -211l-98 -471h-227z" />
<glyph unicode="&#x4cf;" horiz-adv-x="499" d="M37 0l303 1434h252l-303 -1434h-252z" />
<glyph unicode="&#x4d0;" horiz-adv-x="1191" d="M-78 0l797 1444h196l187 -1444h-268l-41 317h-418l-170 -317h-283zM492 543h290l-32 319l2 225h-11l-82 -227zM503 1749l222 41q-4 -57 27.5 -90t88.5 -33q133 0 174 121l234 -35q-43 -125 -152.5 -186.5t-275.5 -61.5q-80 0 -139.5 19.5t-98.5 52.5t-58.5 77t-21.5 95z " />
<glyph unicode="&#x4d1;" horiz-adv-x="1030" d="M68 295q0 150 37.5 287t117.5 241.5t202 167t290 62.5q72 0 156.5 -13.5t164.5 -35.5l-127 -594q-16 -78 -23 -158t-7 -152q0 -29 1 -54.5t3 -47.5h-187l-28 176h-9q-23 -37 -58.5 -72.5t-78.5 -65.5t-91 -47.5t-99 -17.5q-135 0 -199.5 88t-64.5 236zM328 344 q0 -66 21.5 -114t78.5 -48q37 0 69.5 15.5t60.5 40t49.5 53t37.5 53.5l103 477q-23 10 -52.5 15.5t-58.5 5.5q-74 0 -131 -44t-97 -115t-60.5 -160t-20.5 -179zM418 1389l225 53q-4 -80 20.5 -113t75.5 -33q53 0 93.5 33t68.5 111l178 -51q-49 -133 -153.5 -198t-229.5 -65 q-59 0 -112 14.5t-91 46.5t-58.5 81t-16.5 121z" />
<glyph unicode="&#x4d2;" horiz-adv-x="1191" d="M-78 0l797 1444h196l187 -1444h-268l-41 317h-418l-170 -317h-283zM492 543h290l-32 319l2 225h-11l-82 -227zM496 1634q0 59 41 89t106 30q66 0 107 -29.5t41 -89.5q0 -59 -41 -87.5t-107 -28.5t-106.5 28.5t-40.5 87.5zM914 1634q0 59 41 89t106 30q66 0 107 -29.5 t41 -89.5q0 -59 -41 -87.5t-107 -28.5t-106.5 28.5t-40.5 87.5z" />
<glyph unicode="&#x4d3;" horiz-adv-x="1030" d="M68 295q0 150 37.5 287t117.5 241.5t202 167t290 62.5q72 0 156.5 -13.5t164.5 -35.5l-127 -594q-16 -78 -23 -158t-7 -152q0 -29 1 -54.5t3 -47.5h-187l-28 176h-9q-23 -37 -58.5 -72.5t-78.5 -65.5t-91 -47.5t-99 -17.5q-135 0 -199.5 88t-64.5 236zM328 344 q0 -66 21.5 -114t78.5 -48q37 0 69.5 15.5t60.5 40t49.5 53t37.5 53.5l103 477q-23 10 -52.5 15.5t-58.5 5.5q-74 0 -131 -44t-97 -115t-60.5 -160t-20.5 -179zM373 1294q0 68 38 106t97 38t97 -38t38 -106q0 -66 -38 -102.5t-97 -36.5t-97 36.5t-38 102.5zM799 1296 q0 66 38 104t97 38t97 -38t38 -104t-38 -103.5t-97 -37.5t-97 37.5t-38 103.5z" />
<glyph unicode="&#x4d4;" horiz-adv-x="1691" d="M-135 0l1120 1434h272h555l-53 -250h-540l-72 -334h493l-53 -250h-491l-74 -350h551l-53 -250h-535h-283l74 348h-350l-262 -348h-299zM592 575h233l107 510h-12l-91 -192z" />
<glyph unicode="&#x4d5;" horiz-adv-x="1523" d="M35 242q0 100 45 171.5t123 116.5t180 66.5t219 21.5h33.5t34.5 -2q23 78 22 121q0 49 -30.5 73t-104.5 24q-68 0 -143.5 -16.5t-141.5 -43.5l-36 191q84 41 193.5 60t211.5 19q94 0 159.5 -29.5t92.5 -92.5q59 63 148 97t182 34q86 0 146.5 -19.5t98 -54.5t55 -81 t17.5 -101q0 -115 -54 -184.5t-146.5 -109.5t-213 -54.5t-252.5 -14.5q-2 -16 -3 -31.5t-1 -29.5q0 -92 47.5 -141.5t155.5 -49.5q78 0 146.5 21.5t109.5 46.5l47 -176q-70 -49 -175 -76t-210 -27q-135 0 -218 49.5t-118 137.5h-10q-66 -74 -151.5 -124t-202.5 -50 q-68 0 -116 21.5t-78.5 57t-46 83t-15.5 96.5zM295 303q0 -55 28.5 -79.5t75.5 -24.5q37 0 71 15t62.5 36.5t51 45t37.5 42.5l18 119q-16 2 -33.5 2h-34.5q-117 0 -196.5 -38t-79.5 -118zM915 598q66 0 133.5 3t123 18.5t90 47t34.5 87.5q0 35 -24.5 64.5t-91.5 29.5 q-109 0 -171.5 -73t-93.5 -177z" />
<glyph unicode="&#x4d6;" horiz-adv-x="1030" d="M41 0l303 1434h266h541l-53 -250h-541l-72 -334h494l-55 -250h-490l-76 -350h551l-51 -250h-551h-266zM440 1749l222 41q-4 -57 27.5 -90t88.5 -33q133 0 174 121l234 -35q-43 -125 -152.5 -186.5t-275.5 -61.5q-80 0 -139.5 19.5t-98.5 52.5t-58.5 77t-21.5 95z" />
<glyph unicode="&#x4d7;" horiz-adv-x="954" d="M70 340q0 164 51 296t134 224t187.5 142.5t208.5 50.5q84 0 144.5 -21.5t99.5 -59.5t57.5 -87t18.5 -105q0 -84 -43 -147.5t-120 -105.5t-185.5 -63.5t-237.5 -21.5q-16 0 -30.5 1t-30.5 1q-4 -25 -6.5 -44t-2.5 -35q0 -92 48.5 -137.5t136.5 -45.5q90 0 161.5 27 t108.5 53l53 -164q-63 -53 -163.5 -90t-233.5 -37q-166 0 -261 97.5t-95 271.5zM360 604q57 0 122 4t120 19.5t92 45t37 81.5q0 31 -22.5 62.5t-94.5 31.5q-90 0 -156.5 -70t-97.5 -174zM383 1389l225 53q-4 -80 20.5 -113t75.5 -33q53 0 93.5 33t68.5 111l178 -51 q-49 -133 -153.5 -198t-229.5 -65q-59 0 -112 14.5t-91 46.5t-58.5 81t-16.5 121z" />
<glyph unicode="&#x4d8;" horiz-adv-x="1226" d="M104 455q0 176 74 383h787q2 12 2 24v25q0 70 -13.5 129t-45 103t-85 68.5t-133.5 24.5q-49 0 -96 -9t-89 -23.5t-77 -29.5t-59 -30l-7 240q70 39 170.5 70.5t221.5 31.5q111 0 200.5 -33.5t155.5 -102.5t101.5 -173t35.5 -244q0 -182 -44 -351t-131 -299t-219 -209 t-308 -79q-111 0 -193 36t-137 99.5t-83 152.5t-28 196zM365 453q0 -104 47 -177t155 -73q74 0 133.5 29.5t105.5 83t79 127t49 163.5h-553q-10 -39 -13 -78t-3 -75z" />
<glyph unicode="&#x4d9;" horiz-adv-x="1003" d="M47 260q0 162 123 253t397 91q70 0 150 -6q4 23 6 41t2 35q0 90 -58.5 129t-142.5 39t-152.5 -19.5t-109.5 -40.5l-55 179q70 43 168 67.5t215 24.5q96 0 167.5 -29t119 -78t70 -114.5t22.5 -139.5q0 -172 -44 -306t-123 -226t-186.5 -140.5t-234.5 -48.5 q-80 0 -142.5 23.5t-104.5 62.5t-64.5 91.5t-22.5 111.5zM295 299q0 -45 27.5 -81t101.5 -36q98 0 161.5 70.5t92.5 181.5q-33 4 -64.5 7t-62.5 3q-109 0 -182.5 -34.5t-73.5 -110.5z" />
<glyph unicode="&#x4da;" horiz-adv-x="1226" d="M104 455q0 176 74 383h787q2 12 2 24v25q0 70 -13.5 129t-45 103t-85 68.5t-133.5 24.5q-49 0 -96 -9t-89 -23.5t-77 -29.5t-59 -30l-7 240q70 39 170.5 70.5t221.5 31.5q111 0 200.5 -33.5t155.5 -102.5t101.5 -173t35.5 -244q0 -182 -44 -351t-131 -299t-219 -209 t-308 -79q-111 0 -193 36t-137 99.5t-83 152.5t-28 196zM365 453q0 -104 47 -177t155 -73q74 0 133.5 29.5t105.5 83t79 127t49 163.5h-553q-10 -39 -13 -78t-3 -75zM498 1634q0 59 41 89t106 30q66 0 107 -29.5t41 -89.5q0 -59 -41 -87.5t-107 -28.5t-106.5 28.5 t-40.5 87.5zM916 1634q0 59 41 89t106 30q66 0 107 -29.5t41 -89.5q0 -59 -41 -87.5t-107 -28.5t-106.5 28.5t-40.5 87.5z" />
<glyph unicode="&#x4db;" horiz-adv-x="1003" d="M47 260q0 162 123 253t397 91q70 0 150 -6q4 23 6 41t2 35q0 90 -58.5 129t-142.5 39t-152.5 -19.5t-109.5 -40.5l-55 179q70 43 168 67.5t215 24.5q96 0 167.5 -29t119 -78t70 -114.5t22.5 -139.5q0 -172 -44 -306t-123 -226t-186.5 -140.5t-234.5 -48.5 q-80 0 -142.5 23.5t-104.5 62.5t-64.5 91.5t-22.5 111.5zM260 1294q0 68 38 106t97 38t97 -38t38 -106q0 -66 -38 -102.5t-97 -36.5t-97 36.5t-38 102.5zM295 299q0 -45 27.5 -81t101.5 -36q98 0 161.5 70.5t92.5 181.5q-33 4 -64.5 7t-62.5 3q-109 0 -182.5 -34.5 t-73.5 -110.5zM686 1296q0 66 38 104t97 38t97 -38t38 -104t-38 -103.5t-97 -37.5t-97 37.5t-38 103.5z" />
<glyph unicode="&#x4dc;" horiz-adv-x="1644" d="M-94 0l483 629l125 80l-78 75l-200 650h286l168 -613h82l129 613h254l-135 -637l70 22l399 615h315l-448 -629l-109 -70l86 -86l230 -649h-295l-201 623h-84l-131 -623h-254l137 647l-67 -24l-437 -623h-325zM721 1634q0 59 41 89t106 30q66 0 107 -29.5t41 -89.5 q0 -59 -41 -87.5t-107 -28.5t-106.5 28.5t-40.5 87.5zM1139 1634q0 59 41 89t106 30q66 0 107 -29.5t41 -89.5q0 -59 -41 -87.5t-107 -28.5t-106.5 28.5t-40.5 87.5z" />
<glyph unicode="&#x4dd;" horiz-adv-x="1550" d="M-51 27l67 204q37 -10 66 -10q76 0 133 69.5t90 235.5q8 41 10 74t2 62q0 104 -42 138t-113 21l-25 183q92 25 164 24q123 0 186.5 -71.5t63.5 -225.5q0 -29 -2 -58.5t-6 -64.5h155l88 416h242l-90 -416h143q29 119 71 200t93 131t108.5 71.5t114.5 21.5q63 0 134 -26 l-54 -185q-23 6 -43 6q-63 0 -118.5 -60t-90.5 -218q-18 -80 -18 -148q0 -53 10 -94t31.5 -67.5t52.5 -34.5t72 6l24 -184q-96 -33 -168 -33q-70 0 -118.5 27.5t-79.5 74.5t-44.5 111.5t-13.5 136.5q0 20 1.5 38.5t3.5 39.5h-150l-88 -422h-242l90 422h-149 q-31 -117 -75 -200t-96 -134t-110.5 -74.5t-119.5 -23.5q-41 0 -80 10t-80 27zM619 1294q0 68 38 106t97 38t97 -38t38 -106q0 -66 -38 -102.5t-97 -36.5t-97 36.5t-38 102.5zM1045 1296q0 66 38 104t97 38t97 -38t38 -104t-38 -103.5t-97 -37.5t-97 37.5t-38 103.5z" />
<glyph unicode="&#x4de;" horiz-adv-x="1038" d="M-35 47l119 244q41 -23 119 -46.5t192 -23.5q49 0 102.5 12.5t96.5 40t70.5 72.5t27.5 111q0 98 -70.5 135t-201.5 41h-78h-53l47 221h47q18 0 43 1t50.5 3t50 4t40.5 4q41 6 82 19.5t73 38t52.5 59.5t20.5 84q0 66 -50.5 103.5t-148.5 37.5q-86 0 -165 -24.5t-130 -46.5 l-18 237q25 12 66.5 26.5t94 27t113.5 21.5t123 9q86 0 157.5 -19.5t125 -58.5t83 -97t29.5 -134q0 -141 -76.5 -247.5t-228.5 -141.5v-10q39 -12 76 -34t64.5 -56.5t45 -84t17.5 -116.5q0 -125 -49.5 -216t-134 -151.5t-199.5 -90.5t-244 -30t-230.5 22.5t-150.5 53.5z M377 1634q0 59 41 89t106 30q66 0 107 -29.5t41 -89.5q0 -59 -41 -87.5t-107 -28.5t-106.5 28.5t-40.5 87.5zM795 1634q0 59 41 89t106 30q66 0 107 -29.5t41 -89.5q0 -59 -41 -87.5t-107 -28.5t-106.5 28.5t-40.5 87.5z" />
<glyph unicode="&#x4df;" horiz-adv-x="833" d="M-41 59l94 193q41 -27 101.5 -46.5t136.5 -19.5q96 0 149.5 44t53.5 112q0 45 -39 64.5t-156 19.5h-94l39 182h118q33 0 67 10.5t59.5 29t42 43t16.5 52.5q0 49 -32 70t-109 21q-68 0 -115 -12.5t-98 -35.5l-43 187q33 18 75.5 30.5t91 21.5t98.5 13t97 4 q164 0 233.5 -58t67.5 -161q0 -49 -16.5 -93t-45 -79t-66.5 -61.5t-81 -40.5v-8q84 -20 116 -72.5t32 -116.5q0 -88 -37 -157.5t-102.5 -117.5t-154.5 -74t-194 -26q-98 0 -179 25t-126 57zM205 1294q0 68 38 106t97 38t97 -38t38 -106q0 -66 -38 -102.5t-97 -36.5t-97 36.5 t-38 102.5zM631 1296q0 66 38 104t97 38t97 -38t38 -104t-38 -103.5t-97 -37.5t-97 37.5t-38 103.5z" />
<glyph unicode="&#x4e0;" horiz-adv-x="1081" d="M6 51l117 246q49 -31 131 -53.5t158 -22.5q84 0 146.5 21.5t103 57.5t61 81t20.5 92q0 100 -62.5 141t-225.5 41h-170l26 119l369 356l108 89l-120 -27h-394l52 242h837l-33 -154l-403 -387l-104 -64v-10l94 23q61 -2 117.5 -25.5t98.5 -65.5t66.5 -101.5t24.5 -133.5 q0 -127 -45 -227.5t-128 -171t-201 -108.5t-261 -38q-43 0 -97 5.5t-107.5 14.5t-100.5 24.5t-78 35.5z" />
<glyph unicode="&#x4e1;" horiz-adv-x="890" d="M-158 -338l113 182q47 -31 108.5 -49t122.5 -18q68 0 131.5 20.5t110.5 59.5t75.5 92t28.5 121q0 98 -65.5 141t-233.5 43h-102l23 96l305 375l133 106l-146 -18h-331l45 211h772l-31 -143l-354 -383l-90 -60v-4l61 6q51 0 100.5 -19.5t88 -57t62.5 -94t24 -128.5 q0 -137 -51.5 -243.5t-138.5 -180t-199.5 -112.5t-235.5 -39q-98 0 -184 24.5t-142 71.5z" />
<glyph unicode="&#x4e2;" horiz-adv-x="1306" d="M41 0l303 1434h266l-161 -766l-62 -189h12l136 203l663 752h205l-303 -1434h-266l163 780l60 183h-13l-131 -197l-667 -766h-205zM565 1571l37 182h670l-39 -182h-668z" />
<glyph unicode="&#x4e3;" horiz-adv-x="1048" d="M80 197q0 76 20 165l142 662h252l-134 -633q-12 -61 -12 -102t16.5 -63.5t57.5 -22.5q35 0 70.5 17.5t68.5 45t60.5 61t46.5 66.5l131 631h252l-129 -614q-10 -41 -17.5 -96.5t-13.5 -114t-8 -111.5t0 -88h-203l-10 184h-8q-29 -39 -67 -76.5t-84 -68.5t-100.5 -49.5 t-115.5 -18.5q-96 0 -155.5 48.5t-59.5 177.5zM344 1159l39 189h630l-39 -189h-630z" />
<glyph unicode="&#x4e4;" horiz-adv-x="1306" d="M41 0l303 1434h266l-161 -766l-62 -189h12l136 203l663 752h205l-303 -1434h-266l163 780l60 183h-13l-131 -197l-667 -766h-205zM555 1634q0 59 41 89t106 30q66 0 107 -29.5t41 -89.5q0 -59 -41 -87.5t-107 -28.5t-106.5 28.5t-40.5 87.5zM973 1634q0 59 41 89t106 30 q66 0 107 -29.5t41 -89.5q0 -59 -41 -87.5t-107 -28.5t-106.5 28.5t-40.5 87.5z" />
<glyph unicode="&#x4e5;" horiz-adv-x="1048" d="M80 197q0 76 20 165l142 662h252l-134 -633q-12 -61 -12 -102t16.5 -63.5t57.5 -22.5q35 0 70.5 17.5t68.5 45t60.5 61t46.5 66.5l131 631h252l-129 -614q-10 -41 -17.5 -96.5t-13.5 -114t-8 -111.5t0 -88h-203l-10 184h-8q-29 -39 -67 -76.5t-84 -68.5t-100.5 -49.5 t-115.5 -18.5q-96 0 -155.5 48.5t-59.5 177.5zM361 1294q0 68 38 106t97 38t97 -38t38 -106q0 -66 -38 -102.5t-97 -36.5t-97 36.5t-38 102.5zM787 1296q0 66 38 104t97 38t97 -38t38 -104t-38 -103.5t-97 -37.5t-97 37.5t-38 103.5z" />
<glyph unicode="&#x4e6;" horiz-adv-x="1318" d="M119 537q0 190 52 359t148.5 295t232.5 198.5t304 72.5q111 0 200 -32.5t151.5 -101t97 -173t34.5 -248.5q0 -193 -52 -362.5t-147.5 -297.5t-227.5 -202t-291 -74q-242 0 -371 142.5t-131 423.5zM399 545q0 -147 56.5 -235.5t185.5 -88.5q94 0 171 56.5t132 151.5 t85 218t30 256q0 162 -63.5 235.5t-174.5 73.5q-92 0 -169 -53t-133 -144t-88 -213t-32 -257zM555 1634q0 59 41 89t106 30q66 0 107 -29.5t41 -89.5q0 -59 -41 -87.5t-107 -28.5t-106.5 28.5t-40.5 87.5zM973 1634q0 59 41 89t106 30q66 0 107 -29.5t41 -89.5 q0 -59 -41 -87.5t-107 -28.5t-106.5 28.5t-40.5 87.5z" />
<glyph unicode="&#x4e7;" horiz-adv-x="1015" d="M70 332q0 162 46 295t122.5 227t178 146.5t212.5 52.5q98 0 165.5 -31t109.5 -82t60.5 -116.5t18.5 -135.5q0 -160 -45 -292t-121 -226t-176 -146.5t-211 -52.5q-96 0 -163.5 32t-111.5 83t-64.5 115.5t-20.5 130.5zM330 367q0 -184 133 -185q49 0 96 43t84 113t58.5 158 t21.5 176q0 82 -27.5 126t-103.5 44q-49 0 -96 -41t-84 -107.5t-59.5 -152.5t-22.5 -174zM334 1294q0 68 38 106t97 38t97 -38t38 -106q0 -66 -38 -102.5t-97 -36.5t-97 36.5t-38 102.5zM760 1296q0 66 38 104t97 38t97 -38t38 -104t-38 -103.5t-97 -37.5t-97 37.5 t-38 103.5z" />
<glyph unicode="&#x4e8;" horiz-adv-x="1318" d="M119 537q0 190 50 359t145.5 295t229.5 198.5t304 72.5q109 0 200 -32.5t155.5 -101t100 -173t35.5 -248.5q0 -193 -51 -362.5t-144 -297.5t-223 -202t-290 -74q-242 0 -376 142.5t-136 423.5zM399 545q0 -147 60.5 -235.5t189.5 -88.5q66 0 123 29t104.5 81t83 121.5 t58.5 153.5h-617q-2 -16 -2 -30.5v-30.5zM438 834h619q0 16 1 33.5t1 35.5q0 162 -67.5 235.5t-178.5 73.5q-66 0 -124 -27.5t-105 -78.5t-84 -121t-62 -151z" />
<glyph unicode="&#x4e9;" horiz-adv-x="1015" d="M70 332q0 162 46 295t123.5 227t179 146.5t212.5 52.5q98 0 165.5 -31t108.5 -82t59.5 -116.5t18.5 -135.5q0 -160 -45 -292t-122 -226t-177 -146.5t-211 -52.5q-96 0 -163.5 32t-110.5 83t-63.5 115.5t-20.5 130.5zM330 367q0 -184 133 -185q66 0 123 70t94 174h-348 q-2 -16 -2 -30.5v-28.5zM367 592h350q6 39 6 80q0 82 -27.5 126t-103.5 44q-33 0 -65.5 -19.5t-61.5 -53.5t-54.5 -79t-43.5 -98z" />
<glyph unicode="&#x4ea;" horiz-adv-x="1318" d="M119 537q0 190 50 359t145.5 295t229.5 198.5t304 72.5q109 0 200 -32.5t155.5 -101t100 -173t35.5 -248.5q0 -193 -51 -362.5t-144 -297.5t-223 -202t-290 -74q-242 0 -376 142.5t-136 423.5zM399 545q0 -147 60.5 -235.5t189.5 -88.5q66 0 123 29t104.5 81t83 121.5 t58.5 153.5h-617q-2 -16 -2 -30.5v-30.5zM438 834h619q0 16 1 33.5t1 35.5q0 162 -67.5 235.5t-178.5 73.5q-66 0 -124 -27.5t-105 -78.5t-84 -121t-62 -151zM563 1634q0 59 41 89t106 30q66 0 107 -29.5t41 -89.5q0 -59 -41 -87.5t-107 -28.5t-106.5 28.5t-40.5 87.5z M981 1634q0 59 41 89t106 30q66 0 107 -29.5t41 -89.5q0 -59 -41 -87.5t-107 -28.5t-106.5 28.5t-40.5 87.5z" />
<glyph unicode="&#x4eb;" horiz-adv-x="1015" d="M70 332q0 162 46 295t123.5 227t179 146.5t212.5 52.5q98 0 165.5 -31t108.5 -82t59.5 -116.5t18.5 -135.5q0 -160 -45 -292t-122 -226t-177 -146.5t-211 -52.5q-96 0 -163.5 32t-110.5 83t-63.5 115.5t-20.5 130.5zM330 367q0 -184 133 -185q66 0 123 70t94 174h-348 q-2 -16 -2 -30.5v-28.5zM334 1294q0 68 38 106t97 38t97 -38t38 -106q0 -66 -38 -102.5t-97 -36.5t-97 36.5t-38 102.5zM367 592h350q6 39 6 80q0 82 -27.5 126t-103.5 44q-33 0 -65.5 -19.5t-61.5 -53.5t-54.5 -79t-43.5 -98zM760 1296q0 66 38 104t97 38t97 -38t38 -104 t-38 -103.5t-97 -37.5t-97 37.5t-38 103.5z" />
<glyph unicode="&#x4ec;" horiz-adv-x="1130" d="M-25 39l123 244q39 -23 111 -42.5t170 -19.5q90 0 170 29t141.5 81t103.5 124.5t58 158.5h-539l47 226h514q6 78 -4 146.5t-43.5 118.5t-96 78.5t-161.5 28.5q-102 0 -173.5 -23.5t-125.5 -51.5l-8 237q78 37 169 62.5t196 25.5q143 0 244.5 -45t164 -120.5t91 -173 t28.5 -203.5q0 -203 -49 -377t-150.5 -301t-257 -199t-368.5 -72q-53 0 -105.5 6.5t-99.5 15.5t-86 21.5t-64 24.5zM360 1634q0 59 41 89t106 30q66 0 107 -29.5t41 -89.5q0 -59 -41 -87.5t-107 -28.5t-106.5 28.5t-40.5 87.5zM778 1634q0 59 41 89t106 30q66 0 107 -29.5 t41 -89.5q0 -59 -41 -87.5t-107 -28.5t-106.5 28.5t-40.5 87.5z" />
<glyph unicode="&#x4ed;" horiz-adv-x="886" d="M-47 53l96 189q41 -27 100.5 -43.5t122.5 -16.5q242 0 297 250h-366l33 174h362q2 16 3 32.5t1 29.5q0 90 -43 132t-115 42q-94 0 -150 -17.5t-104 -40.5l-57 166q82 49 175 76t192 27q174 0 264 -92.5t90 -258.5q0 -193 -48 -331t-128 -227t-184.5 -131t-219.5 -42 q-98 0 -186 23.5t-135 58.5zM178 1294q0 68 38 106t97 38t97 -38t38 -106q0 -66 -38 -102.5t-97 -36.5t-97 36.5t-38 102.5zM604 1296q0 66 38 104t97 38t97 -38t38 -104t-38 -103.5t-97 -37.5t-97 37.5t-38 103.5z" />
<glyph unicode="&#x4ee;" horiz-adv-x="1118" d="M106 35l117 227q29 -16 53.5 -21t55.5 -5q43 0 84 44t80 113l-287 1041h293l143 -633l2 -187h12l68 193l334 627h297l-574 -992q-68 -117 -121 -202.5t-105 -142t-111.5 -84t-139.5 -27.5q-125 0 -201 49zM458 1571l37 182h670l-39 -182h-668z" />
<glyph unicode="&#x4ef;" horiz-adv-x="925" d="M-35 -389l68 201q12 -6 25.5 -8.5t25.5 -2.5q49 0 100.5 47.5t102.5 151.5l-193 1024h289l59 -575l2 -160h13l55 162l279 573h268l-492 -920q-61 -115 -115.5 -211t-109.5 -165.5t-114.5 -108.5t-127.5 -39q-90 0 -135 31zM260 1159l39 189h630l-39 -189h-630z" />
<glyph unicode="&#x4f0;" horiz-adv-x="1118" d="M106 35l117 227q29 -16 53.5 -21t55.5 -5q43 0 84 44t80 113l-287 1041h293l143 -633l2 -187h12l68 193l334 627h297l-574 -992q-68 -117 -121 -202.5t-105 -142t-111.5 -84t-139.5 -27.5q-125 0 -201 49zM485 1634q0 59 41 89t106 30q66 0 107 -29.5t41 -89.5 q0 -59 -41 -87.5t-107 -28.5t-106.5 28.5t-40.5 87.5zM903 1634q0 59 41 89t106 30q66 0 107 -29.5t41 -89.5q0 -59 -41 -87.5t-107 -28.5t-106.5 28.5t-40.5 87.5z" />
<glyph unicode="&#x4f1;" horiz-adv-x="925" d="M-35 -389l68 201q12 -6 25.5 -8.5t25.5 -2.5q49 0 100.5 47.5t102.5 151.5l-193 1024h289l59 -575l2 -160h13l55 162l279 573h268l-492 -920q-61 -115 -115.5 -211t-109.5 -165.5t-114.5 -108.5t-127.5 -39q-90 0 -135 31zM277 1294q0 68 38 106t97 38t97 -38t38 -106 q0 -66 -38 -102.5t-97 -36.5t-97 36.5t-38 102.5zM703 1296q0 66 38 104t97 38t97 -38t38 -104t-38 -103.5t-97 -37.5t-97 37.5t-38 103.5z" />
<glyph unicode="&#x4f2;" horiz-adv-x="1118" d="M106 35l117 227q29 -16 53.5 -21t55.5 -5q43 0 84 44t80 113l-287 1041h293l143 -633l2 -187h12l68 193l334 627h297l-574 -992q-68 -117 -121 -202.5t-105 -142t-111.5 -84t-139.5 -27.5q-125 0 -201 49zM512 1518l162 223h258l-7 -33l-235 -190h-178zM821 1518l238 223 h270l-6 -33l-318 -190h-184z" />
<glyph unicode="&#x4f3;" horiz-adv-x="925" d="M-35 -389l68 201q12 -6 25.5 -8.5t25.5 -2.5q49 0 100.5 47.5t102.5 151.5l-193 1024h289l59 -575l2 -160h13l55 162l279 573h268l-492 -920q-61 -115 -115.5 -211t-109.5 -165.5t-114.5 -108.5t-127.5 -39q-90 0 -135 31zM371 1169l122 265h230l-6 -33l-195 -232h-151z M641 1169l199 265h245l-6 -33l-278 -232h-160z" />
<glyph unicode="&#x4f4;" horiz-adv-x="1193" d="M199 809q0 63 14 129l104 496h265l-95 -445q-6 -27 -7 -49t-1 -45q0 -80 38 -119t124 -39q74 0 138.5 16.5t109.5 51.5l133 629h266l-303 -1434h-266l123 578q-29 -14 -59.5 -28.5t-67.5 -27t-83 -19.5t-104 -7q-72 0 -132 18t-104 57t-68.5 98.5t-24.5 139.5zM498 1634 q0 59 41 89t106 30q66 0 107 -29.5t41 -89.5q0 -59 -41 -87.5t-107 -28.5t-106.5 28.5t-40.5 87.5zM916 1634q0 59 41 89t106 30q66 0 107 -29.5t41 -89.5q0 -59 -41 -87.5t-107 -28.5t-106.5 28.5t-40.5 87.5z" />
<glyph unicode="&#x4f5;" horiz-adv-x="993" d="M109 551q0 59 14 125l74 348h252l-50 -233q-10 -43 -15 -78t-5 -64q0 -57 23.5 -85.5t78.5 -28.5q59 0 103.5 18t72.5 41l95 430h252l-218 -1024h-251l83 401q-35 -23 -99 -50t-163 -27q-53 0 -98 11t-79 37.5t-52 69.5t-18 109zM307 1294q0 68 38 106t97 38t97 -38 t38 -106q0 -66 -38 -102.5t-97 -36.5t-97 36.5t-38 102.5zM733 1296q0 66 38 104t97 38t97 -38t38 -104t-38 -103.5t-97 -37.5t-97 37.5t-38 103.5z" />
<glyph unicode="&#x4f6;" horiz-adv-x="892" d="M41 0l303 1434h791l-54 -250h-524l-197 -934h170l-108 -506h-186l24 256h-219z" />
<glyph unicode="&#x4f7;" horiz-adv-x="851" d="M27 252q0 96 39.5 159.5t99 102.5t129.5 64.5t129 48t98 49t39 72.5q0 47 -26.5 66.5t-85.5 19.5q-92 0 -151.5 -17.5t-102.5 -38.5l-31 189q33 18 77 31.5t93 23.5t99 15t93 5q82 0 138.5 -18t91.5 -50t50 -75t15 -92q0 -100 -39 -162.5t-99 -103.5t-129 -65.5 t-128 -48.5t-99 -54.5t-40 -79.5q0 -53 39 -82t98 -29q27 0 60.5 6.5t66.5 16.5t60.5 22.5t43.5 24.5l117 -109l-108 -376h-193l61 251q-35 -23 -78.5 -35t-103.5 -12q-78 0 -138 23.5t-101 63.5t-62.5 90.5t-21.5 103.5z" />
<glyph unicode="&#x4f8;" horiz-adv-x="1566" d="M41 14l301 1420h266l-108 -514l67.5 10t87.5 6q98 0 175 -27.5t129.5 -78t79 -119t26.5 -150.5q0 -135 -45 -242.5t-131 -183.5t-211 -115.5t-285 -39.5h-53.5t-32.5 2q-37 0 -80 4t-93 10t-93 18zM354 242q43 -12 111 -13q68 0 126 18.5t101 54.5t67.5 87t24.5 119 q0 178 -217 178q-27 0 -65.5 -5t-55.5 -11zM676 1634q0 59 41 89t106 30q66 0 107 -29.5t41 -89.5q0 -59 -41 -87.5t-107 -28.5t-106.5 28.5t-40.5 87.5zM1092 0l303 1434h266l-303 -1434h-266zM1094 1634q0 59 41 89t106 30q66 0 107 -29.5t41 -89.5q0 -59 -41 -87.5 t-107 -28.5t-106.5 28.5t-40.5 87.5z" />
<glyph unicode="&#x4f9;" horiz-adv-x="1382" d="M74 176q0 29 6 64l172 784h252l-86 -377q41 10 98 18.5t100 8.5q152 0 214.5 -61.5t62.5 -159.5q0 -104 -44 -190.5t-118 -148t-172 -95t-207 -33.5q-145 0 -211.5 50t-66.5 140zM334 262q0 -66 80 -65q43 0 83 14t69.5 38.5t48 58.5t18.5 75q0 57 -27.5 80.5t-97.5 23.5 q-37 0 -68.5 -7t-60.5 -17l-39 -172q-2 -8 -4 -14.5t-2 -14.5zM510 1294q0 68 38 106t97 38t97 -38t38 -106q0 -66 -38 -102.5t-97 -36.5t-97 36.5t-38 102.5zM924 0l217 1024h252l-217 -1024h-252zM936 1296q0 66 38 104t97 38t97 -38t38 -104t-38 -103.5t-97 -37.5 t-97 37.5t-38 103.5z" />
<glyph unicode="&#x4fc;" horiz-adv-x="1245" d="M-49 0l571 731l-229 703h291l123 -414l20 -146l74 144l307 416h317l-536 -691l149 -436q31 -78 48.5 -148.5t17.5 -156.5q0 -109 -27.5 -189.5t-78 -133t-121 -78t-154.5 -25.5q-70 0 -135 14l49 228q66 -6 105.5 6t62 37.5t31 62.5t8.5 80q0 16 -5 42t-12.5 54.5 t-16.5 57t-17 53.5l-86 231l-21 152l-80 -152l-334 -442h-321z" />
<glyph unicode="&#x4fd;" horiz-adv-x="1015" d="M-84 0l424 524l-184 500h286l78 -219l25 -143l90 143l176 219h295l-399 -492l110 -270q29 -66 42 -124t13 -136q0 -100 -31.5 -178t-87 -132t-130 -82t-160.5 -28q-59 0 -117 12l43 209q102 -16 162.5 35t60.5 144q0 43 -7 80.5t-23 80.5l-43 103l-37 147l-90 -147 l-203 -246h-293z" />
<glyph unicode="&#x510;" horiz-adv-x="1036" d="M72 350q0 98 30.5 172t82 125t114.5 80t129 37v12q-68 29 -116 90.5t-48 169.5q0 115 50.5 196t129 131t175 72.5t188.5 22.5q57 0 114.5 -8t107.5 -21.5t89 -29t58 -29.5l-119 -225q-43 23 -113 43t-139 20q-53 0 -100.5 -10t-83 -32.5t-56 -56.5t-20.5 -83 q0 -76 41 -110.5t106 -51.5q31 -10 80 -10h84h47l-47 -221h-53h-40t-36 -2q-82 -2 -150.5 -12.5t-118.5 -35t-78 -68.5t-28 -114q0 -92 65.5 -136t162.5 -44q98 0 184 21.5t137 52.5l25 -221q-59 -43 -173 -73t-241 -30q-84 0 -163 22.5t-140.5 69t-99 118t-37.5 169.5z" />
<glyph unicode="&#x511;" horiz-adv-x="866" d="M51 242q0 106 63.5 184t180.5 115v8q-55 23 -82 72t-27 112t28 119.5t79 98.5t123.5 66.5t163.5 24.5q121 0 205.5 -25.5t136.5 -60.5l-97 -190q-31 23 -86 44t-139 21q-74 0 -119 -34.5t-49 -89.5q-4 -47 30 -74t101 -27h119l-39 -176h-96q-125 0 -178.5 -38t-57.5 -91 q-4 -49 30 -81t120 -32q78 0 145.5 18.5t118.5 47.5l20 -184q-53 -39 -143 -66t-188 -27q-100 0 -170 18.5t-113 53.5t-61.5 83t-18.5 110z" />
<glyph unicode="&#x512;" horiz-adv-x="1228" d="M-98 14l80 242q23 -8 49 -8q33 0 64.5 16.5t64.5 57.5q37 41 76.5 127t84 221t93.5 324.5t104 439.5h252h287h266l-313 -1477q-39 -186 -126 -283.5t-247 -97.5q-55 0 -123 12l47 230q51 -4 84 5t52.5 30.5t31.5 58.5t25 88l250 1184h-287q-47 -195 -90 -356.5 t-86 -290.5t-89 -226.5t-100 -165.5q-41 -49 -82 -80.5t-79.5 -49t-74.5 -23.5t-67 -6q-94 0 -147 28z" />
<glyph unicode="&#x513;" horiz-adv-x="1028" d="M-96 18l78 222q35 -10 59 -11q41 2 77 37t74.5 124t82.5 242.5t102 391.5h661l-217 -1024q-47 -217 -138 -321.5t-245 -104.5q-29 0 -58.5 3t-62.5 11l48 224q49 -4 83.5 6t57 34.5t38 62.5t25.5 87l174 811h-188q-51 -190 -99 -343t-105.5 -260.5t-128 -164.5 t-165.5 -57q-111 0 -153 30z" />
<glyph unicode="&#x51c;" horiz-adv-x="1691" d="M223 1434h281l6 -799l-29 -254h11l79 258l406 795h180l60 -799l-27 -254h10l82 258l336 795h287l-682 -1444h-187l-75 796l16 220h-12l-78 -222l-408 -794h-186z" />
<glyph unicode="&#x51d;" horiz-adv-x="1388" d="M94 1024h258l33 -514l-12 -182h10l70 184l270 512h188l66 -524l-2 -170h10l62 172l237 522h246l-522 -1034h-187l-71 573v129h-9l-53 -131l-307 -571h-193z" />
<glyph unicode="&#x524;" horiz-adv-x="1341" d="M41 0l303 1434h266h473h269l-250 -1184h172l-109 -506h-186l25 256h-222l250 1184h-475l-250 -1184h-266z" />
<glyph unicode="&#x525;" horiz-adv-x="1118" d="M27 0l217 1024h190l-10 -180h8q27 33 62.5 69.5t83 67.5t105.5 51.5t132 20.5q92 0 147.5 -50.5t55.5 -166.5q0 -31 -3 -66t-14 -76l-104 -483h205l-131 -444h-193l62 233h-238l135 635q12 57 13 100q0 45 -18.5 70.5t-67.5 25.5q-37 0 -74 -18t-70 -49t-61.5 -69 t-48.5 -77l-131 -618h-252z" />
<glyph unicode="&#x526;" horiz-adv-x="1300" d="M41 0l303 1434h266l-123 -578q57 31 130 56.5t184 25.5q66 0 125 -17.5t105 -55.5t72.5 -97t26.5 -145q0 -63 -14 -129l-51 -244h172l-109 -506h-186l25 256h-219l96 449q4 25 7 46t3 42q0 160 -166 159q-76 0 -137.5 -19.5t-110.5 -49.5l-133 -627h-266z" />
<glyph unicode="&#x527;" horiz-adv-x="1114" d="M37 0l303 1434h252l-129 -590h8q27 33 64.5 69.5t84 67.5t100.5 51.5t118 20.5q98 0 152 -49.5t54 -174.5q0 -76 -24 -192l-92 -426h162l-132 -444h-192l61 233h-194l123 582q20 90 20 149q0 53 -20.5 76.5t-63.5 23.5q-39 0 -82 -24.5t-82 -61t-70.5 -78.5t-47.5 -77 l-121 -590h-252z" />
<glyph unicode="&#x1e30;" horiz-adv-x="1214" d="M41 0l303 1434h266l-135 -635l64 22l485 613h319l-516 -609l-122 -71l90 -80l311 -674h-297l-277 612h-96l-129 -612h-266zM636 1540l256 242h322l-12 -62l-353 -180h-213z" />
<glyph unicode="&#x1e31;" horiz-adv-x="952" d="M37 0l303 1434h252l-180 -846l75 26l289 410h281l-305 -412l-123 -77l92 -78l156 -457h-271l-147 424h-82l-88 -424h-252zM651 1159l170 316h256l-12 -62l-273 -254h-141z" />
<glyph unicode="&#x1e3e;" horiz-adv-x="1570" d="M41 0l303 1434h236l215 -656l26 -164h10l95 168l483 652h256l-303 -1434h-264l157 743l91 283h-13l-135 -231l-403 -531h-84l-193 537l-37 225h-10l-20 -281l-158 -745h-252zM856 1540l256 242h322l-12 -62l-353 -180h-213z" />
<glyph unicode="&#x1e3f;" horiz-adv-x="1570" d="M37 0l217 1024h197l-13 -180h8q31 33 67 69.5t81 67.5t100.5 51.5t120.5 20.5q82 0 124 -59.5t38 -157.5q31 39 70.5 77.5t86 69.5t98.5 50.5t107 19.5q94 0 144.5 -44t50.5 -165q0 -88 -31 -230l-129 -614h-252l121 575q10 47 16.5 88.5t6.5 71.5q0 47 -17.5 71.5 t-58.5 24.5q-33 0 -66.5 -19t-64.5 -49t-56.5 -64.5t-39.5 -65.5l-132 -633h-251l116 557q12 57 19.5 101t7.5 79q0 94 -72 94q-35 0 -69.5 -18t-64.5 -47t-55.5 -62.5t-41.5 -64.5l-131 -639h-252zM848 1159l170 316h256l-12 -62l-273 -254h-141z" />
<glyph unicode="&#x1e54;" horiz-adv-x="1126" d="M41 0l301 1419q86 16 183.5 25.5t195.5 9.5q104 0 193.5 -23.5t156 -72.5t103 -126t36.5 -183q0 -160 -55 -267.5t-146 -174t-208 -94.5t-238 -28h-31.5t-45 1t-45 3.5t-31.5 4.5l-103 -494h-266zM463 735q8 -2 22.5 -4t32 -3t32.5 -1h23q70 0 134.5 15.5t113.5 49t79 89 t30 135.5q0 59 -19.5 98t-52.5 60.5t-77 29.5t-93 8q-37 0 -70.5 -3t-56.5 -7zM602 1540l256 242h322l-12 -62l-353 -180h-213z" />
<glyph unicode="&#x1e55;" horiz-adv-x="1036" d="M-53 -410l303 1434h186l-10 -180h8q29 39 66 76.5t82 66.5t96 47.5t110 18.5q104 0 168 -72t64 -225q0 -174 -46 -318.5t-123 -248t-180.5 -161t-215.5 -57.5q-53 0 -100.5 10.5t-69.5 26.5l-88 -418h-250zM328 217q51 -35 114 -35t121 43t102 115t69.5 167t25.5 200 q0 59 -27.5 97t-75.5 38q-37 0 -71.5 -18.5t-65.5 -46t-55.5 -62.5t-42.5 -68zM579 1159l170 316h256l-12 -62l-273 -254h-141z" />
<glyph unicode="&#x1e9e;" horiz-adv-x="1359" d="M41 0l207 979q25 117 68.5 206t113.5 150.5t169 93t235 31.5q104 0 184 -17.5t141.5 -45t106.5 -63.5t82 -72l-344 -367l-84 -59l-2 -11l77 17q152 -12 224.5 -100.5t72.5 -225.5q0 -133 -49 -234.5t-131 -171t-191.5 -104.5t-228.5 -35q-29 0 -69.5 4.5t-81.5 12.5 t-76 18t-51 21l106 233q18 -10 44 -17t54.5 -11.5t57.5 -7.5t51 -3q49 0 100.5 14.5t92.5 45t66.5 79t25.5 113.5q0 96 -64.5 139t-218.5 43h-104l37 170l339 342q-31 33 -86 52.5t-131 19.5q-68 0 -115.5 -26.5t-80.5 -72.5t-54.5 -110.5t-37.5 -142.5l-191 -887h-264z" />
<glyph unicode="&#x2000;" horiz-adv-x="1030" />
<glyph unicode="&#x2001;" horiz-adv-x="2060" />
<glyph unicode="&#x2002;" horiz-adv-x="1030" />
<glyph unicode="&#x2003;" horiz-adv-x="2060" />
<glyph unicode="&#x2004;" horiz-adv-x="686" />
<glyph unicode="&#x2005;" horiz-adv-x="515" />
<glyph unicode="&#x2006;" horiz-adv-x="343" />
<glyph unicode="&#x2007;" horiz-adv-x="343" />
<glyph unicode="&#x2008;" horiz-adv-x="257" />
<glyph unicode="&#x2009;" horiz-adv-x="412" />
<glyph unicode="&#x200a;" horiz-adv-x="114" />
<glyph unicode="&#x2010;" horiz-adv-x="702" d="M115 483l51 213h489l-51 -213h-489z" />
<glyph unicode="&#x2011;" horiz-adv-x="702" d="M115 483l51 213h489l-51 -213h-489z" />
<glyph unicode="&#x2012;" horiz-adv-x="702" d="M115 483l51 213h489l-51 -213h-489z" />
<glyph unicode="&#x2013;" horiz-adv-x="1284" d="M215 483l51 213h858l-51 -213h-858z" />
<glyph unicode="&#x2014;" horiz-adv-x="1595" d="M215 483l51 213h1170l-52 -213h-1169z" />
<glyph unicode="&#x2018;" horiz-adv-x="440" d="M203 1282q0 82 34.5 145.5t83 107.5t96.5 69.5t77 31.5l38 -110q-41 -16 -76.5 -52t-47.5 -77q35 0 57 -31t22 -74q0 -80 -47 -118.5t-102 -38.5q-35 0 -60.5 13t-42 34.5t-24.5 47t-8 52.5z" />
<glyph unicode="&#x2019;" horiz-adv-x="440" d="M203 1061q43 18 78.5 49t50.5 78q-37 4 -61.5 34t-22.5 83q0 37 15.5 64.5t38 46t49 27.5t50.5 9q72 0 103 -37t31 -100q0 -84 -32 -147.5t-78 -108.5t-96 -71.5t-87 -39.5z" />
<glyph unicode="&#x201a;" horiz-adv-x="462" d="M17 -131q43 18 78.5 49t50.5 78q-37 4 -61.5 34t-22.5 83q0 37 15.5 64.5t38 46t49 27.5t50.5 9q72 0 103 -37t31 -100q0 -84 -32 -147.5t-78 -108.5t-96 -71.5t-87 -39.5z" />
<glyph unicode="&#x201c;" horiz-adv-x="776" d="M203 1282q0 82 34.5 145.5t83 107.5t96.5 69.5t77 31.5l38 -110q-41 -16 -76.5 -52t-47.5 -77q35 0 57 -31t22 -74q0 -80 -47 -118.5t-102 -38.5q-35 0 -60.5 13t-42 34.5t-24.5 47t-8 52.5zM539 1282q0 82 34.5 145.5t83 107.5t96.5 69.5t77 31.5l38 -110 q-41 -16 -76.5 -52t-47.5 -77q35 0 57 -31t22 -74q0 -80 -47 -118.5t-102 -38.5q-35 0 -60.5 13t-42 34.5t-24.5 47t-8 52.5z" />
<glyph unicode="&#x201d;" horiz-adv-x="776" d="M203 1061q43 18 78.5 49t50.5 78q-37 4 -61.5 34t-22.5 83q0 37 15.5 64.5t38 46t49 27.5t50.5 9q72 0 103 -37t31 -100q0 -84 -32 -147.5t-78 -108.5t-96 -71.5t-87 -39.5zM537 1061q43 18 78.5 49t50.5 78q-37 4 -61.5 34t-22.5 83q0 37 15.5 64.5t38 46t49 27.5 t50.5 9q72 0 103 -37t31 -100q0 -84 -32 -147.5t-78 -108.5t-96 -71.5t-87 -39.5z" />
<glyph unicode="&#x201e;" horiz-adv-x="796" d="M17 -131q43 18 78.5 49t50.5 78q-37 4 -61.5 34t-22.5 83q0 37 15.5 64.5t38 46t49 27.5t50.5 9q72 0 103 -37t31 -100q0 -84 -32 -147.5t-78 -108.5t-96 -71.5t-87 -39.5zM348 -131q43 18 78.5 49t50.5 78q-37 4 -61.5 34t-22.5 83q0 37 15.5 64.5t38 46t49 27.5t50.5 9 q72 0 103 -37t31 -100q0 -84 -32 -147.5t-78 -108.5t-96 -71.5t-87 -39.5z" />
<glyph unicode="&#x2020;" horiz-adv-x="1003" d="M178 819l49 232h226l94 -33l-8 110l65 306h240l-66 -306l-53 -110l109 33h225l-49 -232h-230l-90 33l10 -100l-159 -752l-119 -410h-178l57 412l160 750l49 100l-104 -33h-228z" />
<glyph unicode="&#x2021;" horiz-adv-x="1003" d="M66 295l49 231h225l94 -30l-8 92l35 172l49 90l-104 -31h-228l49 232h226l94 -31l-8 102l65 312h240l-66 -312l-51 -102l107 31h225l-49 -232h-230l-90 31l10 -90l-34 -172l-52 -92l103 30h229l-47 -231h-227l-92 31l8 -101l-47 -225l-121 -410h-174l55 412l47 223 l51 101l-106 -31h-227z" />
<glyph unicode="&#x2022;" horiz-adv-x="925" d="M201 637q0 70 24.5 127t66.5 98t98 64.5t122 23.5t123 -21.5t99 -61.5t66.5 -98t24.5 -132t-24.5 -131t-66.5 -97t-99 -61.5t-123 -21.5t-122 21.5t-98 61.5t-66.5 97t-24.5 131z" />
<glyph unicode="&#x2026;" horiz-adv-x="1574" d="M39 135q0 72 45 114t118 42q76 0 121 -42t45 -114t-45 -115t-121 -43q-74 0 -118.5 43t-44.5 115zM566 135q0 72 45 114t118 42q76 0 121 -42t45 -114t-45 -115t-121 -43q-74 0 -118.5 43t-44.5 115zM1096 135q0 72 45 114t118 42q76 0 121 -42t45 -114t-45 -115 t-121 -43q-74 0 -118.5 43t-44.5 115z" />
<glyph unicode="&#x202f;" horiz-adv-x="412" />
<glyph unicode="&#x2030;" horiz-adv-x="2342" d="M113 1022q0 111 38 192.5t99.5 136t136 81t148.5 26.5q135 0 205.5 -62.5t70.5 -183.5q0 -117 -34.5 -201.5t-94 -140t-136.5 -82t-159 -26.5q-127 0 -200.5 70.5t-73.5 189.5zM133 113l1179 1349l150 -135l-1180 -1356zM338 1034q-2 -45 20.5 -72.5t65.5 -27.5 q68 0 115 70.5t47 181.5q0 100 -88 100q-35 0 -63.5 -20.5t-51 -54t-35 -80t-10.5 -97.5zM801 262q0 111 38 192.5t99.5 136t136 81t148.5 26.5q135 0 205.5 -62.5t70.5 -183.5q0 -117 -34.5 -201.5t-94 -140t-136.5 -82t-159 -26.5q-127 0 -200.5 70.5t-73.5 189.5z M1026 274q-2 -45 20.5 -72.5t65.5 -27.5q68 0 115 70.5t47 181.5q0 100 -88 100q-35 0 -63.5 -20.5t-51 -54t-35 -80t-10.5 -97.5zM1557 262q0 111 38 192.5t99.5 136t136 81t148.5 26.5q135 0 205.5 -62.5t70.5 -183.5q0 -117 -34.5 -201.5t-94 -140t-136.5 -82t-159 -26.5 q-127 0 -200.5 70.5t-73.5 189.5zM1782 274q-2 -45 20.5 -72.5t65.5 -27.5q68 0 115 70.5t47 181.5q0 100 -88 100q-35 0 -63.5 -20.5t-51 -54t-35 -80t-10.5 -97.5z" />
<glyph unicode="&#x2039;" horiz-adv-x="600" d="M66 530l409 471l123 -131l-217 -258l-113 -80l74 -75l123 -252l-172 -127z" />
<glyph unicode="&#x203a;" horiz-adv-x="600" d="M63 203l222 260l112 84l-71 80l-127 254l176 120l225 -452l-410 -471z" />
<glyph unicode="&#x2044;" horiz-adv-x="376" d="M-283 80l883 1384l174 -102l-880 -1391z" />
<glyph unicode="&#x205f;" horiz-adv-x="515" />
<glyph unicode="&#x2081;" horiz-adv-x="823" d="M35 -205l43 205h190l72 336l39 94l-72 -65l-129 -76l-69 149l358 232h168l-143 -670h170l-44 -205h-583z" />
<glyph unicode="&#x2082;" horiz-adv-x="823" d="M-12 -205l32 146q59 37 137.5 90t147 112.5t115.5 122t49 117.5q0 37 -19.5 57.5t-72.5 20.5t-104.5 -18.5t-90.5 -39.5l-28 185q76 43 156.5 62.5t150.5 19.5q117 0 180.5 -53.5t63.5 -151.5q-2 -123 -77 -225.5t-208 -200.5l-103 -51v-8l117 22h207l-45 -207h-608z" />
<glyph unicode="&#x2083;" horiz-adv-x="823" d="M4 -170l82 184q82 -39 170 -39q100 0 143 38t41 85q0 43 -28.5 61.5t-128.5 20.5h-84l16 78l174 166l94 49l-114 -12h-222l43 194h551l-28 -127l-209 -190l-72 -35v-10l55 6q76 -4 125.5 -53t49.5 -129q0 -86 -32 -149.5t-87.5 -104.5t-131 -61.5t-163.5 -20.5 q-74 0 -138.5 13t-105.5 36z" />
<glyph unicode="&#x2084;" horiz-adv-x="823" d="M-39 -45l29 137l542 580h179l-113 -535h147l-38 -182h-148l-35 -160h-196l34 160h-401zM193 121l106 16h102l37 176l35 109h-10l-64 -100l-123 -136z" />
<glyph unicode="&#x20ac;" d="M-12 473l104 191h133q8 61 21 118h-195l107 191h147q68 156 172 262q115 119 252 173t260 54q100 0 174 -19.5t123 -47.5l-108 -185q-37 18 -91.5 28.5t-130.5 10.5q-80 0 -169 -43t-164 -131q-39 -45 -70 -102h520l-94 -191h-500q-12 -55 -20 -118h454l-94 -191h-364 q4 -45 12 -84q14 -63 50 -109.5t94.5 -71t148.5 -24.5q76 0 137 18.5t115 47.5l35 -187q-70 -45 -170.5 -68.5t-198.5 -23.5q-121 0 -208 38t-144.5 105.5t-83.5 159.5q-27 90 -27 199h-227z" />
<glyph unicode="&#x20b4;" d="M131 471l41 186h875l-41 -186h-484q-35 -31 -69.5 -80t-34.5 -96q0 -23 7 -42.5t25.5 -35.5t50 -24.5t83.5 -8.5q102 0 167.5 20.5t114.5 45.5l13 -201q-53 -29 -146.5 -53.5t-247.5 -24.5q-156 0 -239.5 65.5t-83.5 184.5q0 41 13 81t30.5 74t36 58.5t30.5 36.5h-141z M195 776l41 187h485q35 29 70.5 79t35.5 109q0 45 -28.5 71.5t-100.5 26.5q-78 0 -137 -17.5t-110 -41.5l-31 199q37 16 70.5 29.5t73.5 23.5t91.5 15t120.5 5q160 0 232.5 -60.5t72.5 -166.5q0 -53 -12 -95t-30.5 -76t-40 -58.5t-40.5 -42.5h152l-41 -187h-874z" />
<glyph unicode="&#x20b6;" d="M33 254l41 186h157l25 119h-160l43 186h156l143 674q90 16 176 25.5t191 9.5q92 0 170 -21.5t134 -66.5t88 -113.5t32 -160.5q0 -150 -54.5 -251.5t-140.5 -165t-191.5 -91t-205.5 -27.5h-139l-25 -117h318l-39 -186h-318l-53 -254h-244l53 254h-157zM541 752h106 q55 0 113.5 16t106.5 50t78 86t30 126q0 98 -45.5 148.5t-151.5 50.5q-41 0 -77.5 -3t-61.5 -7z" />
<glyph unicode="&#x20b7;" d="M33 254l41 186h157l25 119h-160l43 186h156l143 674q90 16 176 25.5t191 9.5q92 0 170 -21.5t134 -66.5t88 -113.5t32 -160.5q0 -150 -54.5 -251.5t-140.5 -165t-191.5 -91t-205.5 -27.5h-139l-25 -117h318l-39 -186h-318l-53 -254h-244l53 254h-157zM541 752h106 q55 0 113.5 16t106.5 50t78 86t30 126q0 98 -45.5 148.5t-151.5 50.5q-41 0 -77.5 -3t-61.5 -7z" />
<glyph unicode="&#x20b9;" d="M33 254l41 186h157l25 119h-160l43 186h156l143 674q90 16 176 25.5t191 9.5q92 0 170 -21.5t134 -66.5t88 -113.5t32 -160.5q0 -150 -54.5 -251.5t-140.5 -165t-191.5 -91t-205.5 -27.5h-139l-25 -117h318l-39 -186h-318l-53 -254h-244l53 254h-157zM541 752h106 q55 0 113.5 16t106.5 50t78 86t30 126q0 98 -45.5 148.5t-151.5 50.5q-41 0 -77.5 -3t-61.5 -7z" />
<glyph unicode="&#x20ba;" d="M33 254l41 186h157l25 119h-160l43 186h156l143 674q90 16 176 25.5t191 9.5q92 0 170 -21.5t134 -66.5t88 -113.5t32 -160.5q0 -150 -54.5 -251.5t-140.5 -165t-191.5 -91t-205.5 -27.5h-139l-25 -117h318l-39 -186h-318l-53 -254h-244l53 254h-157zM541 752h106 q55 0 113.5 16t106.5 50t78 86t30 126q0 98 -45.5 148.5t-151.5 50.5q-41 0 -77.5 -3t-61.5 -7z" />
<glyph unicode="&#x20bb;" d="M33 254l41 186h157l25 119h-160l43 186h156l143 674q90 16 176 25.5t191 9.5q92 0 170 -21.5t134 -66.5t88 -113.5t32 -160.5q0 -150 -54.5 -251.5t-140.5 -165t-191.5 -91t-205.5 -27.5h-139l-25 -117h318l-39 -186h-318l-53 -254h-244l53 254h-157zM541 752h106 q55 0 113.5 16t106.5 50t78 86t30 126q0 98 -45.5 148.5t-151.5 50.5q-41 0 -77.5 -3t-61.5 -7z" />
<glyph unicode="&#x20bc;" d="M33 254l41 186h157l25 119h-160l43 186h156l143 674q90 16 176 25.5t191 9.5q92 0 170 -21.5t134 -66.5t88 -113.5t32 -160.5q0 -150 -54.5 -251.5t-140.5 -165t-191.5 -91t-205.5 -27.5h-139l-25 -117h318l-39 -186h-318l-53 -254h-244l53 254h-157zM541 752h106 q55 0 113.5 16t106.5 50t78 86t30 126q0 98 -45.5 148.5t-151.5 50.5q-41 0 -77.5 -3t-61.5 -7z" />
<glyph unicode="&#x20bd;" d="M33 254l41 186h157l25 119h-160l43 186h156l143 674q90 16 176 25.5t191 9.5q92 0 170 -21.5t134 -66.5t88 -113.5t32 -160.5q0 -150 -54.5 -251.5t-140.5 -165t-191.5 -91t-205.5 -27.5h-139l-25 -117h318l-39 -186h-318l-53 -254h-244l53 254h-157zM541 752h106 q55 0 113.5 16t106.5 50t78 86t30 126q0 98 -45.5 148.5t-151.5 50.5q-41 0 -77.5 -3t-61.5 -7z" />
<glyph unicode="&#x20be;" d="M33 254l41 186h157l25 119h-160l43 186h156l143 674q90 16 176 25.5t191 9.5q92 0 170 -21.5t134 -66.5t88 -113.5t32 -160.5q0 -150 -54.5 -251.5t-140.5 -165t-191.5 -91t-205.5 -27.5h-139l-25 -117h318l-39 -186h-318l-53 -254h-244l53 254h-157zM541 752h106 q55 0 113.5 16t106.5 50t78 86t30 126q0 98 -45.5 148.5t-151.5 50.5q-41 0 -77.5 -3t-61.5 -7z" />
<glyph unicode="&#x20bf;" d="M33 254l41 186h157l25 119h-160l43 186h156l143 674q90 16 176 25.5t191 9.5q92 0 170 -21.5t134 -66.5t88 -113.5t32 -160.5q0 -150 -54.5 -251.5t-140.5 -165t-191.5 -91t-205.5 -27.5h-139l-25 -117h318l-39 -186h-318l-53 -254h-244l53 254h-157zM541 752h106 q55 0 113.5 16t106.5 50t78 86t30 126q0 98 -45.5 148.5t-151.5 50.5q-41 0 -77.5 -3t-61.5 -7z" />
<glyph unicode="&#x20c0;" d="M33 254l41 186h157l25 119h-160l43 186h156l143 674q90 16 176 25.5t191 9.5q92 0 170 -21.5t134 -66.5t88 -113.5t32 -160.5q0 -150 -54.5 -251.5t-140.5 -165t-191.5 -91t-205.5 -27.5h-139l-25 -117h318l-39 -186h-318l-53 -254h-244l53 254h-157zM541 752h106 q55 0 113.5 16t106.5 50t78 86t30 126q0 98 -45.5 148.5t-151.5 50.5q-41 0 -77.5 -3t-61.5 -7z" />
<glyph unicode="&#x20c1;" d="M33 254l41 186h157l25 119h-160l43 186h156l143 674q90 16 176 25.5t191 9.5q92 0 170 -21.5t134 -66.5t88 -113.5t32 -160.5q0 -150 -54.5 -251.5t-140.5 -165t-191.5 -91t-205.5 -27.5h-139l-25 -117h318l-39 -186h-318l-53 -254h-244l53 254h-157zM541 752h106 q55 0 113.5 16t106.5 50t78 86t30 126q0 98 -45.5 148.5t-151.5 50.5q-41 0 -77.5 -3t-61.5 -7z" />
<glyph unicode="&#x20c2;" d="M33 254l41 186h157l25 119h-160l43 186h156l143 674q90 16 176 25.5t191 9.5q92 0 170 -21.5t134 -66.5t88 -113.5t32 -160.5q0 -150 -54.5 -251.5t-140.5 -165t-191.5 -91t-205.5 -27.5h-139l-25 -117h318l-39 -186h-318l-53 -254h-244l53 254h-157zM541 752h106 q55 0 113.5 16t106.5 50t78 86t30 126q0 98 -45.5 148.5t-151.5 50.5q-41 0 -77.5 -3t-61.5 -7z" />
</font>
</defs>
</svg>
