<?xml version="1.0" standalone="no"?>
<!DOCTYPE svg PUBLIC "-//W3C//DTD SVG 1.1//EN" "http://www.w3.org/Graphics/SVG/1.1/DTD/svg11.dtd" >
<svg xmlns="http://www.w3.org/2000/svg" xmlns:xlink="http://www.w3.org/1999/xlink" version="1.1">
<metadata></metadata>
<defs>
<font id="saysettha_otregular" horiz-adv-x="1139" >
<font-face units-per-em="2048" ascent="1638" descent="-410" />
<missing-glyph horiz-adv-x="1024" />
<glyph horiz-adv-x="0" />
<glyph unicode="&#xd;" horiz-adv-x="569" />
<glyph unicode=" "  horiz-adv-x="1024" />
<glyph unicode="&#x09;" horiz-adv-x="1024" />
<glyph unicode="&#xa0;" horiz-adv-x="1024" />
<glyph unicode="!" horiz-adv-x="569" d="M186 1064v386h208v-386l-48 -704h-112zM194 0v192h192v-192h-192z" />
<glyph unicode="&#x22;" horiz-adv-x="727" d="M106 1204v248h192v-248l-44 -255h-104zM434 1204v248h192v-248l-44 -255h-104z" />
<glyph unicode="#" d="M34 412v139h201l71 360l-272 2v141h304l80 398h135l-87 -396h335l80 396h136l-88 -394h167v-139h-199l-72 -363h271v-140h-287l-96 -416h-128l80 414h-327l-80 -414h-136l80 412h-168zM370 559h319l72 352h-319z" />
<glyph unicode="$" d="M90 395l160 32q22 -298 264 -309v556q-189 46 -318 166q-83 99 -79 237q2 72 27 155q101 233 370 238v86h95v-86q171 0 268 -92q83 -85 116 -249q-10 0 -176 -24q-15 105 -73 160q-47 45 -135 62v-493q7 -4 206.5 -92.5t209.5 -334.5q-24 -400 -416 -428v-183h-95v183 q-361 -2 -424 416zM288 1079q5 -71 63 -138q57 -57 163 -83v469q-123 -17 -177 -96q-53 -78 -49 -152zM609 120q250 59 250 275q-10 175 -250 255v-530z" />
<glyph unicode="%" horiz-adv-x="1821" d="M112 1094q1 369 299 376q298 -7 299 -376q-1 -376 -299 -383q-298 7 -299 383zM263 1094q2 -262 148 -264q146 2 148 264q-2 254 -148 256q-146 -2 -148 -256zM411 0l783 1450h175l-783 -1450h-175zM1070 363q1 369 299 376q298 -7 299 -376q-1 -376 -299 -383 q-298 7 -299 383zM1221 363q2 -262 148 -264q146 2 148 264q-2 254 -148 256q-146 -2 -148 -256z" />
<glyph unicode="&#x26;" horiz-adv-x="1366" d="M105 392q5 233 345 435q-167 201 -161 315q14 312 352 316q294 -8 328 -304q-1 -213 -273 -350q116 -172 265 -329q57 91 64 192l183 -32q-47 -179 -127 -307q109 -125 215 -212q-8 -12 -112 -136q-87 63 -216 192q-163 -185 -415 -192q-423 23 -448 412zM297 404 q26 -254 260 -272q132 -2 300 176q-152 174 -319 399q-241 -131 -241 -303zM473 1162q-11 -74 58 -155.5t77 -90.5q177 122 177 234q7 151 -152 164q-154 -10 -160 -152z" />
<glyph unicode="'" horiz-adv-x="391" d="M106 1195v256h192v-256q-18 -83 -40 -247h-112q-23 151 -40 247z" />
<glyph unicode="(" horiz-adv-x="682" d="M137 526q0 123 21 238.5t63.5 228t107.5 226t153 233.5h119q-66 -118 -119.5 -233t-91 -230t-57.5 -232t-20 -239q0 -190 48.5 -384t143.5 -378q23 -44 48 -86t48 -87h-119q-92 126 -157.5 244t-107 233.5t-61 231t-19.5 234.5z" />
<glyph unicode=")" horiz-adv-x="682" d="M98 -418q34 64 66.5 125.5t61 121.5t52.5 120.5t42 122.5q65 225 65 449q0 100 -10.5 193.5t-32 183t-55.5 177.5t-82 178q-26 51 -53.5 99.5t-53.5 98.5h120q43 -71 86.5 -143t82.5 -143.5t71 -140.5t52 -133q26 -86 38 -179t13 -195q0 -198 -59 -396t-180 -386 q-26 -39 -52 -76.5t-52 -76.5h-120z" />
<glyph unicode="*" horiz-adv-x="797" d="M73 1171q15 70 48 136q102 -33 217 -96q5 38 -4 101.5t2 137.5h114q11 -74 2 -137.5t-4 -101.5q115 63 217 96q33 -66 48 -136l-244 -56q92 -97 163 -183q-48 -48 -107 -80l-132 199l-132 -199q-59 32 -107 80q71 86 163 183z" />
<glyph unicode="+" horiz-adv-x="1196" d="M130 604v160h392v391h159v-391h392v-160h-392v-391h-159v391h-392z" />
<glyph unicode="," horiz-adv-x="569" d="M186 -215q30 18 46 29.5t26 26.5t18 38t22 65v56h-96v192h192v-263q-14 -41 -23.5 -68.5t-18.5 -46t-18 -30.5t-22 -22t-32 -21t-46 -28q-8 15 -11.5 23t-8 14t-10.5 13.5t-18 21.5z" />
<glyph unicode="-" horiz-adv-x="818" d="M31 385v150h620v-150h-620z" />
<glyph unicode="." horiz-adv-x="569" d="M202 0v192h192v-192h-192z" />
<glyph unicode="/" horiz-adv-x="569" d="M18 0l416 1478h135l-415 -1478h-136z" />
<glyph unicode="0" d="M97 742q0 183 29.5 315.5t87.5 222.5t144 136t199 46q238 0 353 -186t115 -554q0 -370 -117.5 -556t-346.5 -186q-240 0 -352 189t-112 573zM265 722q0 -310 74.5 -463t221.5 -153q76 0 132 40.5t92.5 117.5t54 185t17.5 273q0 174 -20 289t-57.5 187t-93 105t-125.5 33 q-146 0 -221 -152t-75 -462z" />
<glyph unicode="1" d="M234 941v146q33 10 73 32t82 51.5t83.5 64.5t78 72t65.5 73.5t45 69.5h100v-1450h-162v1156q-62 -44 -104 -74t-72.5 -49.5t-52 -32t-41.5 -21.5t-42 -17.5t-53 -20.5z" />
<glyph unicode="2" d="M74 0q0 171 174 351q168 153 310 273q301 225 300 446q1 255 -293 278q-265 -18 -299 -308q-160 14 -160 25q60 393 464 401q429 -12 447 -404q0 -270 -319 -512q-185 -156 -286 -255q-107 -105 -118 -145h723v-150h-943z" />
<glyph unicode="3" d="M98 374l136 7q75 -270 319 -283q291 16 312 314q-5 342 -411 294l18 122q295 1 328 261q-8 244 -251 255q-190 -24 -234.5 -150.5t-43.5 -126.5q-3 0 -154 29q93 366 423 366q410 0 419 -377q0 -182 -206 -295q280 -134 280 -370q-28 -408 -480 -440q-380 1 -455 394z " />
<glyph unicode="4" d="M42 357v148l663 943h124v-958h196v-133h-196v-357h-151v357h-636zM184 498h486v701z" />
<glyph unicode="5" d="M110 354l148 20q11 -62 36.5 -113t63 -87t87 -56t108.5 -20q68 0 128 27.5t104.5 76.5t70.5 116.5t26 146.5q0 78 -25 141.5t-69 108t-92.5 69t-133.5 24.5q-93 0 -163.5 -26.5t-127.5 -111.5l-146 21l145 759h707v-142h-575l-95 -466q95 99 291 99q91 0 171.5 -32.5 t141 -92.5t95.5 -144t35 -187q0 -108 -35.5 -200.5t-100.5 -160t-155.5 -106t-200.5 -38.5q-80 0 -157.5 27t-139 76.5t-100.5 118.5t-42 152z" />
<glyph unicode="6" d="M89 690q14 766 509 772q301 0 402 -326q-69 -41 -133 -36q-49 250 -277 244q-345 -17 -339 -613q94 194 359 204q389 -23 415 -470q-29 -470 -443 -485q-489 5 -493 710zM287 465q20 -317 304 -359q248 20 280 346q-6 331 -292 349q-281 -30 -292 -336z" />
<glyph unicode="7" d="M114 1311v142h919v-123q-77 -98 -147.5 -207t-132.5 -226.5t-112.5 -239.5t-86.5 -236t-56 -221t-20 -200h-160q12 178 56 353t112 343t156 320.5t188 294.5h-716z" />
<glyph unicode="8" d="M97 412q0 112 44 190.5t137 132.5q25 14 50 27.5t50 27.5q-61 28 -103.5 58t-69.5 64.5t-39 80t-12 96.5q0 75 31 146t85.5 120.5t130 78t164.5 28.5q87 0 162.5 -26t130.5 -74t86.5 -120.5t31.5 -156.5q0 -113 -49 -178q-22 -29 -174 -128q77 -36 130.5 -73t86.5 -81 t48 -97t15 -120q0 -93 -34 -171.5t-95.5 -135.5t-148 -89t-190.5 -32q-96 0 -181.5 31.5t-149 88.5t-100.5 136.5t-37 175.5zM265 416q0 -64 24.5 -120.5t66 -98.5t96.5 -66.5t117 -24.5q64 0 118 23.5t93.5 64t62 95.5t22.5 119q0 66 -24.5 123t-66.5 98.5t-97 65 t-116 23.5q-60 0 -113.5 -25t-94 -67t-64.5 -96.5t-24 -113.5zM322 1093q0 -48 19 -96t52 -81t77.5 -52.5t94.5 -19.5q49 0 93 18t77.5 50t53 79.5t19.5 97.5q0 48 -20 91t-53.5 80.5t-77.5 56.5t-92 19q-53 0 -97.5 -20t-76.5 -57.5t-50.5 -79.5t-18.5 -86z" />
<glyph unicode="9" d="M97 962q0 96 32 193t90 163t139.5 105t181.5 39q241 0 367 -184.5t126 -528.5q0 -186 -33.5 -329.5t-98.5 -241t-160.5 -148t-220.5 -50.5q-87 0 -148 17.5t-106 56.5t-78 102t-62 155q9 2 29.5 4.5t43 4.5t43.5 3.5t33 1.5q6 -51 26.5 -93t53 -72t76.5 -46t97 -16 q72 0 129 29.5t99 78.5t69.5 112t42 130t15 133.5t-10.5 121.5q-51 -105 -142.5 -154.5t-209.5 -49.5q-90 0 -167.5 34t-134.5 95t-89 146.5t-32 187.5zM265 959q0 -68 24 -127t64.5 -103.5t95 -70t116.5 -25.5q60 0 108.5 26.5t85 72t61.5 107t37 132.5q0 76 -22.5 139.5 t-61.5 119t-91.5 81t-112.5 25.5q-62 0 -117 -31.5t-96.5 -92t-66 -124.5t-24.5 -129z" />
<glyph unicode=":" horiz-adv-x="569" d="M194 0v192h192v-192h-192zM194 847v191h192v-191h-192z" />
<glyph unicode=";" horiz-adv-x="569" d="M186 -207q31 15 50 34.5t30.5 40t18 40.5t13.5 36v56h-96v192h192v-255q-14 -49 -24 -79t-25.5 -51.5t-41 -40t-69.5 -45.5q-10 18 -15.5 27.5t-10 16t-9.5 12t-13 16.5zM202 847v191h192v-191h-192z" />
<glyph unicode="&#x3c;" horiz-adv-x="1196" d="M130 625v159l943 399v-168l-751 -311l751 -330v-157z" />
<glyph unicode="=" horiz-adv-x="1196" d="M130 409v159h935v-159h-935zM130 840v160h935v-160h-935z" />
<glyph unicode="&#x3e;" horiz-adv-x="1196" d="M129 217v157l751 330l-751 311v168l943 -399v-159z" />
<glyph unicode="?" d="M106 1083q43 125 86.5 200t96.5 114.5t121 52t159 12.5q96 0 179.5 -28t145 -78.5t96.5 -121.5t35 -158q0 -51 -11.5 -96t-37 -88.5t-67 -88.5t-101.5 -97q-38 -33 -63 -55.5t-40.5 -39t-24 -29t-13.5 -26t-8.5 -30t-9.5 -39.5q-17 -71 -17 -130h-142v108 q26 87 63.5 161.5t88.5 128.5q36 38 75.5 72.5t72.5 70.5t54.5 77t21.5 92q0 52 -23.5 101.5t-64 88.5t-94.5 63t-115 24q-59 0 -109.5 -20t-90 -57.5t-66.5 -91.5t-37 -123q-32 2 -53 4t-37.5 5t-32 8.5t-37.5 13.5zM482 0v174h175v-174h-175z" />
<glyph unicode="@" horiz-adv-x="2079" d="M121 464q0 71 12 146t34 149.5t54.5 146.5t72.5 137.5t88 123t102 102.5q241 201 600 201q111 0 216 -25.5t198 -73t170.5 -116t133 -154.5t86.5 -188t31 -217q0 -89 -22.5 -175.5t-63 -164t-96.5 -144t-121.5 -114.5t-139 -75t-149.5 -27q-104 0 -136 41 q-13 34 -24.5 63.5t-22.5 55.5q-47 -47 -85 -78t-72.5 -49t-68.5 -25.5t-73 -7.5q-74 0 -137.5 35t-110.5 95t-73.5 140t-26.5 170q0 79 19.5 156t54.5 146t82.5 127.5t103.5 101.5t118.5 67t125.5 24q84 0 147 -36q21 -12 148 -139q3 9 8 27.5t10 39.5t9 42t5 34h168 l-169 -802q10 -40 25.5 -54t46.5 -14q44 0 90 23.5t88.5 63.5t80 94.5t65.5 115.5t44 126.5t16 128.5q0 88 -26 169.5t-72.5 152t-112 128t-144.5 98.5t-169 63.5t-187 22.5q-117 0 -223.5 -31t-198 -87t-165.5 -135t-126.5 -176t-81 -208.5t-28.5 -232.5 q0 -176 56.5 -315.5t165.5 -237t268.5 -149.5t364.5 -52q130 0 223.5 14.5t170 48.5t147 90.5t154.5 140.5h168q-73 -109 -159 -188.5t-189 -131.5t-223 -77t-260 -25q-236 0 -424 60.5t-319 173.5t-201.5 275t-70.5 365zM681 432q0 -64 15.5 -119t43 -95t64.5 -63t81 -23 q46 0 89.5 20.5t82 56.5t70.5 84.5t55 104.5t36 117t13 121q0 65 -15.5 118t-44 91t-69 58.5t-89.5 20.5q-42 0 -83 -20t-78 -55t-68.5 -82.5t-54 -102.5t-35.5 -114t-13 -118z" />
<glyph unicode="A" horiz-adv-x="1366" d="M18 0l219 579l257 681l72 190h210l72 -190l257 -681l219 -579h-184l-169 446h-600l-169 -446h-184zM422 579h498l-249 680z" />
<glyph unicode="B" horiz-adv-x="1366" d="M162 0v1450h608q75 0 146.5 -28t127 -78t89 -118t33.5 -147q0 -107 -52 -181t-163 -130q82 -35 137.5 -69.5t89 -75.5t47.5 -92t14 -119q0 -96 -33.5 -172t-92.5 -129.5t-140.5 -82t-177.5 -28.5h-633zM337 150h450q55 0 104.5 19.5t86.5 54t58.5 81.5t21.5 103 q0 130 -74 197t-214 67h-433v-522zM337 830h409q61 0 110.5 15.5t83.5 44.5t52.5 72t18.5 98t-19.5 99.5t-54 76t-81 48t-100.5 16.5h-419v-470z" />
<glyph unicode="C" horiz-adv-x="1479" d="M113 736q20 717 678 734q437 0 553 -416l-159 -34q-87 303 -406 304q-491 -10 -499 -600v-12q0 -576 486 -598q344 0 421 365l157 -33q-89 -455 -565 -466q-662 17 -666 756z" />
<glyph unicode="D" horiz-adv-x="1479" d="M170 0v1450h607q133 0 239.5 -53t180.5 -149t114 -229.5t40 -294.5q0 -168 -40.5 -302t-116.5 -227.5t-185.5 -144t-247.5 -50.5h-591zM345 150h383q104 0 186 39.5t138.5 114.5t86 183t29.5 245q0 136 -26 242t-76 178.5t-125 110t-172 37.5h-424v-1150z" />
<glyph unicode="E" horiz-adv-x="1366" d="M178 0v1450h1029v-142h-862v-494h805v-142h-805v-530h895v-142h-1062z" />
<glyph unicode="F" horiz-adv-x="1251" d="M178 0v1450h958v-142h-791v-482h686v-142h-686v-684h-167z" />
<glyph unicode="G" horiz-adv-x="1593" d="M121 716q0 174 50.5 313.5t143.5 237t225.5 150t297.5 52.5q233 0 377 -101.5t208 -311.5l-145 -42q-23 57 -42 95t-38.5 65t-43 46.5t-56.5 39.5q-107 65 -264 65q-127 0 -227 -43.5t-169 -122.5t-105.5 -191t-36.5 -248q0 -141 38 -252t109.5 -188t173 -117.5 t229.5 -40.5q55 0 114.5 11.5t117 32t110 50t94.5 65.5v290h-389v142h547v-511q-59 -50 -127 -91t-143 -70t-155.5 -45t-164.5 -16q-172 0 -307.5 51.5t-229 147t-143 231.5t-49.5 306z" />
<glyph unicode="H" horiz-adv-x="1479" d="M178 0v1450h167v-611h784v611h167v-1450h-167v697h-784v-697h-167z" />
<glyph unicode="I" horiz-adv-x="569" d="M192 0v1450h184v-1450h-184z" />
<glyph unicode="J" horiz-adv-x="1024" d="M104 391l145 22q8 -80 22.5 -134t41 -86.5t67.5 -46.5t103 -14q56 0 100 17.5t74 50t46 77t16 98.5v1075h168v-1091q0 -86 -29.5 -156t-82 -119.5t-126.5 -76.5t-162 -27q-185 0 -284 103.5t-99 307.5z" />
<glyph unicode="K" horiz-adv-x="1366" d="M162 0v1450h175v-758l758 758h212l-595 -594l595 -856h-212l-510 729l-250 -250v-479h-173z" />
<glyph unicode="L" d="M162 0v1450h168v-1308h727v-142h-895z" />
<glyph unicode="M" horiz-adv-x="1706" d="M162 0v1450h276l411 -1281l411 1281h276v-1450h-166v1225l-20 3l-411 -1228h-180l-411 1228l-20 -3v-1225h-166z" />
<glyph unicode="N" horiz-adv-x="1479" d="M170 0v1450h175l787 -1180v1180h164v-1450h-175l-787 1180v-1180h-164z" />
<glyph unicode="O" horiz-adv-x="1593" d="M113 712q0 175 48 315.5t137.5 238.5t216 151t282.5 53q101 0 191 -25.5t165.5 -73t136 -115t102.5 -151t64.5 -181t22.5 -204.5q0 -171 -47 -308t-135.5 -233t-214.5 -147.5t-285 -51.5q-149 0 -274.5 54.5t-216.5 152t-142 232t-51 293.5zM296 704q0 -128 34.5 -234.5 t99.5 -184t158 -120.5t209 -43t208.5 43t157 121.5t99 189t34.5 244.5q0 132 -34.5 242.5t-99 190t-157 123.5t-208.5 44q-114 0 -207 -45t-158 -126t-100.5 -194.5t-35.5 -250.5z" />
<glyph unicode="P" horiz-adv-x="1366" d="M170 0v1448h584q247 0 374 -103t127 -304q0 -107 -32.5 -185t-91.5 -133.5t-140.5 -85.5t-179.5 -30h-474v-607h-167zM345 758h433q65 0 119.5 19t93.5 54t61 84.5t22 121.5q0 52 -11.5 91t-38 68.5t-70.5 52t-110 41.5h-499v-532z" />
<glyph unicode="Q" horiz-adv-x="1593" d="M105 719q0 172 48 311t137.5 236.5t216 150.5t283.5 53q152 0 277.5 -57t215.5 -158t140 -239t50 -301q0 -90 -13 -168.5t-40 -147.5t-69.5 -131.5t-101.5 -121.5q22 -20 53 -41t65 -40.5t67.5 -35.5t61.5 -26q-11 -31 -23.5 -59.5t-25.5 -50.5q-72 34 -128.5 65.5 t-95.5 56t-82 53.5q-25 -17 -62 -33.5t-83 -29t-99.5 -20t-110.5 -7.5q-149 0 -274 55t-215.5 153.5t-141 234.5t-50.5 298zM288 715q0 -133 37.5 -242.5t104.5 -188t159 -121.5t201 -43q30 0 52.5 1t44.5 6t48.5 15t64.5 28q-11 12 -34.5 26.5t-51 28t-54 24.5t-44.5 14 q9 26 15 44.5t19 71.5q41 -12 80.5 -29t74.5 -36.5t64 -41.5t49 -45q49 58 82 112t53 111t28.5 120t8.5 141q0 132 -34 244t-98.5 193t-157 126.5t-210.5 45.5q-114 0 -206.5 -44.5t-158 -124.5t-101.5 -191t-36 -245z" />
<glyph unicode="R" horiz-adv-x="1479" d="M178 0v1450h734q91 0 167.5 -28t131 -80t85 -126t30.5 -165q0 -134 -63.5 -220t-202.5 -135l-142 -50q56 -34 97 -63.5t77.5 -67.5t73.5 -91t86 -134q66 -108 110.5 -180t69.5 -110h-212q-12 21 -33.5 56.5t-48 78t-56 88.5t-58 88.5t-54 79t-42.5 59.5q-49 66 -86 105 t-67.5 59.5t-58 27t-58.5 6.5h-312v-648h-168zM354 798h492q60 0 113.5 19.5t94 53.5t64 80.5t23.5 99.5q0 55 -9 92.5t-35 65.5t-74 50.5t-126 48.5h-543v-510z" />
<glyph unicode="S" horiz-adv-x="1366" d="M106 451l145 27q48 -358 422 -358q18 0 37 1q353 35 372 261v8q0 195 -407 277q-513 105 -513 396v7q29 382 507 400q493 -18 522 -424l-152 -13q-37 282 -374 295q-314 -10 -344 -246q3 -133 159 -188.5t353 -92.5q405 -115 406 -402q-31 -388 -537 -420 q-550 10 -596 472z" />
<glyph unicode="T" horiz-adv-x="1251" d="M66 1308v142h1126v-142h-480v-1308h-165v1308h-481z" />
<glyph unicode="U" horiz-adv-x="1479" d="M178 496v954h167v-946q0 -92 26 -163t76 -120t122 -74t164 -25q198 0 297 98.5t99 299.5v930h167v-946q0 -126 -39 -223.5t-112 -164t-176 -101.5t-232 -35q-135 0 -239 34t-175.5 100t-108 162t-36.5 220z" />
<glyph unicode="V" horiz-adv-x="1366" d="M26 1450h183l475 -1333l484 1333h168l-499 -1333l-44 -117h-214l-45 117z" />
<glyph unicode="W" horiz-adv-x="1933" d="M42 1450h174l298 -1259l342 1259h210l342 -1259l298 1259h174l-357 -1450h-230l-332 1293l-332 -1293h-230z" />
<glyph unicode="X" horiz-adv-x="1366" d="M65 0l528 749l-494 701h205l392 -556l392 556h205l-495 -701l529 -749h-205l-426 603l-426 -603h-205z" />
<glyph unicode="Y" horiz-adv-x="1366" d="M18 1450h207l448 -698l448 698h207l-568 -850v-600h-174v600z" />
<glyph unicode="Z" horiz-adv-x="1251" d="M58 0v165l906 1139h-816v146h1012v-156l-922 -1148h946v-146h-1126z" />
<glyph unicode="[" horiz-adv-x="569" d="M154 -409v1859h384v-117h-228v-1625h228v-117h-384z" />
<glyph unicode="\" horiz-adv-x="569" d="M18 1470h120l431 -1490h-119z" />
<glyph unicode="]" horiz-adv-x="569" d="M58 -293h228v1626h-228v117h384v-1860h-384v117z" />
<glyph unicode="^" horiz-adv-x="961" d="M66 703l336 765h143l344 -765h-168l-247 583l-232 -583h-176z" />
<glyph unicode="_" d="M0 -282h1139v-128h-1139v128z" />
<glyph unicode="`" horiz-adv-x="682" d="M109 1450h232l128 -272h-136z" />
<glyph unicode="a" d="M121 236q0 131 63 212t193 108q29 6 47 9.5t34 6.5t32.5 5.5t42 7.5t63.5 13t96 21q98 21 125 24v144q-38 84 -94 122.5t-146 38.5q-115 0 -199 -60.5t-120 -172.5l-22 5.5t-22.5 5.5t-30 6t-45.5 7q5 42 26.5 83t54.5 78t75.5 69t90 55.5t97.5 36.5t99 13 q70 0 135.5 -21.5t116.5 -58.5t81.5 -86.5t30.5 -104.5v-479q5 -57 10.5 -101.5t12 -80.5t14.5 -65.5t19 -56.5q-29 -8 -60.5 -17.5t-59.5 -22.5q-32 69 -39 111.5t-9 48.5q-44 -44 -85 -74.5t-83 -49.5t-87 -27.5t-97 -8.5q-187 0 -273.5 62.5t-86.5 193.5zM257 248 q0 -66 56.5 -99t167.5 -33q54 0 98 15.5t82.5 40t74 56t73.5 64.5v223q-13 -5 -47 -12t-78 -15.5t-94.5 -18.5t-96.5 -20t-83 -20.5t-56 -20.5q-97 -52 -97 -160z" />
<glyph unicode="b" d="M170 0v1450h134v-511q38 38 71.5 64t67 41.5t69 22.5t77.5 7q92 0 171.5 -44.5t138.5 -120t92.5 -176.5t33.5 -213q0 -111 -33 -209.5t-91.5 -172t-138 -116t-173.5 -42.5q-41 0 -77.5 7.5t-70.5 24t-67.5 42.5t-69.5 62v-116h-134zM305 520q0 -83 21 -156.5t58.5 -128.5 t89.5 -87t115 -32q64 0 119 33t95.5 89t63 129t22.5 153q0 84 -23.5 160.5t-64 134t-95 91.5t-117.5 34q-60 0 -112 -36t-90.5 -94.5t-60 -134.5t-21.5 -155z" />
<glyph unicode="c" horiz-adv-x="1024" d="M113 516q0 113 33 214t90.5 177.5t136.5 121.5t172 45q66 0 128 -22t116 -63.5t98 -100.5t74 -133q-12 -9 -30.5 -17.5t-36 -15t-30.5 -10.5t-15 -5q-33 59 -65.5 104t-68 75.5t-76.5 46t-90 15.5q-66 0 -122.5 -35.5t-98 -95.5t-64.5 -138t-23 -163q0 -82 24 -156 t66.5 -130t100.5 -89t125 -33q106 0 181 70t119 202q10 -3 26.5 -8t34 -9.5t33.5 -8.5t26 -6q-51 -178 -160 -273t-264 -95q-94 0 -174.5 43t-139.5 116t-92.5 170.5t-33.5 206.5z" />
<glyph unicode="d" d="M105 521q0 111 33.5 211.5t92 176t138 120.5t172.5 45q42 0 77.5 -7t69 -23t67 -42t70.5 -63l1 511h135v-1450h-136v117q-41 -41 -74.5 -67.5t-65.5 -42t-66.5 -21.5t-77.5 -6q-62 0 -118 20t-104.5 56.5t-88 86.5t-67.5 110t-43 128t-15 140zM241 521q0 -83 24.5 -157 t65.5 -129t95.5 -87t114.5 -32q63 0 115.5 32.5t90 88t58 129t20.5 155.5q0 88 -20.5 164.5t-58 133t-89.5 89t-116 32.5q-63 0 -118 -36t-95.5 -94.5t-63.5 -134t-23 -154.5z" />
<glyph unicode="e" d="M113 537q0 92 33 194t92 178.5t141.5 120.5t185.5 44q97 0 182.5 -37.5t147 -101.5t96 -150t34.5 -182v-136h-775q0 -79 26.5 -145t72.5 -113.5t95 -74t121 -26.5q113 0 207 56.5t125 159.5q29 -10 56.5 -20t55.5 -20q-18 -66 -57.5 -122t-93.5 -96.5t-138 -63 t-155 -22.5q-101 0 -172 42t-137 114t-104.5 169t-38.5 232zM250 603h639q0 69 -24 130.5t-67 107t-102.5 72.5t-130.5 27q-65 0 -122.5 -28.5t-100 -75.5t-67.5 -108t-25 -125z" />
<glyph unicode="f" horiz-adv-x="569" d="M34 927v127h184q0 102 2.5 162t11 95.5t25 54t43.5 37.5q70 47 225 47q10 0 23.5 -0.5t28.5 -1t29 -0.5q15 0 27 2l-8 -128q-92 0 -147 -6t-84.5 -22t-38.5 -43t-9 -69v-128h223v-127h-223v-927h-128v927h-184z" />
<glyph unicode="g" d="M105 524q0 73 15.5 142t43.5 130t67.5 112.5t88 88t104.5 57t117 20.5q40 0 73.5 -6.5t66.5 -23t67.5 -44t76.5 -69.5v123h143l1 -914l1 -165q0 -90 -31 -161t-87.5 -121t-135 -76.5t-171.5 -26.5q-82 0 -151 20t-122 59t-88.5 97t-49.5 135l128 -18q10 -40 35 -72 t61 -54.5t82.5 -34.5t100.5 -12q64 0 115.5 17.5t88.5 49.5t57 77.5t21 101.5l2 176q-50 -50 -85 -80t-65.5 -46t-61 -21t-72.5 -5q-93 0 -173 43.5t-138.5 118t-91.5 173t-33 209.5zM241 524q0 -83 23.5 -157t64 -130t95 -88.5t117.5 -32.5t115 32.5t89.5 88t58.5 130 t21 157.5q0 88 -20.5 164t-58 132t-89.5 88t-116 32q-63 0 -118 -35t-95.5 -93.5t-63.5 -133.5t-23 -154z" />
<glyph unicode="h" d="M162 0v1450h134l1 -531q79 79 159 117t173 38q72 0 135 -23t110.5 -65t75 -100t27.5 -127v-759h-128v751q0 37 -17.5 72.5t-48 63.5t-72.5 44.5t-90 16.5q-60 0 -119.5 -23.5t-106.5 -61t-76 -84t-29 -92.5v-687h-128z" />
<glyph unicode="i" horiz-adv-x="455" d="M145 1278q0 20 5.5 38t15 32t23.5 22t32 8q33 0 55 -27q21 -26 21 -65q0 -47 -19.5 -73.5t-56.5 -26.5q-33 0 -54.5 27.5t-21.5 64.5zM154 0v1054h128v-1054h-128z" />
<glyph unicode="j" horiz-adv-x="455" d="M-35 -385l52 124q21 -8 42.5 -13t40.5 -5q57 0 83.5 43t26.5 129v1161h128v-1193q0 -271 -233 -271q-27 0 -58.5 6t-81.5 19zM198 1278q0 20 5.5 38t15 32t23.5 22t32 8q30 0 53 -23.5t23 -69.5v-3q0 -43 -19.5 -69.5t-56.5 -26.5q-34 0 -55 27.5t-21 64.5z" />
<glyph unicode="k" horiz-adv-x="1024" d="M170 0v1450h133v-851l498 475l88 -87l-352 -343l400 -585l-104 -80l-391 566l-144 -131v-414h-128z" />
<glyph unicode="l" horiz-adv-x="455" d="M162 0v1450h128v-1450h-128z" />
<glyph unicode="m" horiz-adv-x="1706" d="M162 0v1054h134v-139q36 36 61 60.5t45 40t37 24t37.5 14t47 10t65.5 10.5q52 0 93 -8.5t75.5 -29t64.5 -54t59 -83.5q34 34 64.5 65.5t66.5 56t81.5 39t109.5 14.5t124.5 -31t106.5 -80.5t74 -111.5t28 -124v-727h-128v711q0 42 -20.5 84t-51 76t-67.5 55.5t-70 21.5 q-9 2 -18 2q-31 0 -65 -18q-44 -24 -83 -65t-71 -92t-49 -100v-675h-128v719q0 40 -17 81t-44.5 74t-63 53.5t-71.5 20.5q-29 0 -62.5 -13.5t-66.5 -35t-64 -50t-54.5 -58t-37.5 -59t-14 -53.5v-679h-128z" />
<glyph unicode="n" d="M162 0v1054h134v-135q80 80 156 117.5t161 37.5q47 0 92.5 -15t86 -41t74.5 -61.5t58.5 -75.5t38.5 -83.5t14 -86.5v-711h-128v703q0 46 -22 90t-56 78.5t-76 55.5t-82 21q-7 1 -14 1q-39 0 -81 -22q-50 -26 -96 -69.5t-82 -97.5t-50 -105v-655h-128z" />
<glyph unicode="o" d="M105 512q0 111 35 212.5t96 179.5t144.5 124t180.5 46q64 0 123.5 -21t111.5 -58.5t94 -89.5t72 -114.5t46.5 -133t16.5 -145.5q0 -109 -35.5 -206t-98 -169.5t-147 -114.5t-183.5 -42q-96 0 -179.5 42.5t-145 115t-96.5 169t-35 205.5zM241 512q0 -82 27 -154t72 -126 t102.5 -85t118.5 -31q68 0 128 32t104.5 86.5t70 126.5t25.5 151q0 85 -26 162.5t-70.5 136.5t-104.5 94t-127 35q-65 0 -123 -36.5t-101.5 -96.5t-69.5 -137t-26 -158z" />
<glyph unicode="p" d="M170 -409v1463h134v-119q39 39 73 66t67.5 43t68.5 23t76 7q93 0 173 -45t138.5 -121t91.5 -176.5t33 -210.5t-33 -208.5t-91 -172.5t-138 -117t-174 -43q-39 0 -75 7.5t-70.5 24t-68.5 42.5t-71 63v-526h-134zM305 521q0 -82 20.5 -155.5t58 -129t90 -88t115.5 -32.5 q64 0 118.5 33t95 89t63.5 129t23 154q0 85 -23.5 161.5t-64 133.5t-95 90.5t-117.5 33.5q-60 0 -112 -35t-90 -93t-60 -134t-22 -157z" />
<glyph unicode="q" d="M105 520q0 110 34 210.5t92.5 177t138 121.5t171.5 45q85 0 159 -38.5t125 -106.5v125h136v-1464h-136v518q-61 -61 -131.5 -94.5t-152.5 -33.5q-94 0 -174 43.5t-138 118t-91 172.5t-33 206zM241 520q0 -81 24.5 -154.5t66 -129t96 -88t113.5 -32.5q63 0 115 32.5 t89.5 88t58.5 129t21 154.5q0 88 -20.5 164.5t-58 133.5t-89.5 89.5t-116 32.5q-63 0 -118 -35.5t-95.5 -94.5t-63.5 -134.5t-23 -155.5z" />
<glyph unicode="r" horiz-adv-x="682" d="M154 0v1054h134v-119q27 40 50.5 67t49 43t55 22.5t66.5 6.5t71.5 -10.5t63 -24.5t49 -27t28.5 -17q-3 -7 -13.5 -22.5t-23.5 -31.5t-25 -28.5t-18 -12.5q-27 20 -66.5 34t-73.5 14q-33 0 -62 -18t-53.5 -48t-43.5 -68t-32.5 -77.5t-20.5 -77.5t-7 -68v-591h-128z" />
<glyph unicode="s" horiz-adv-x="1024" d="M98 284l122 32q26 -62 53 -102t61 -63.5t77 -33t102 -9.5q50 0 100 16t90 42t65 60t25 70q0 96 -172 148q-152 46 -231.5 70.5t-88.5 29.5q-172 85 -172 264q0 51 29.5 99t80.5 85t120.5 59.5t149.5 22.5q69 0 134.5 -24.5t116.5 -63.5t82 -87.5t31 -95.5l-128 -24 q-6 38 -28.5 69.5t-56 53.5t-75 34t-84.5 12q-49 0 -93 -10t-77.5 -28.5t-53.5 -44.5t-20 -57q0 -44 12 -74t47.5 -55t99.5 -48t169 -52q109 -30 175.5 -61t102 -65.5t47 -74t11.5 -86.5q0 -60 -32.5 -116t-88 -99.5t-129.5 -70t-158 -26.5q-161 0 -262.5 75t-152.5 229z " />
<glyph unicode="t" horiz-adv-x="569" d="M58 927v127h144v276h128v-276h200v-127h-200v-723q0 -48 26 -70.5t74 -22.5q28 0 52 5t56 16q20 -82 39 -128q-40 -8 -81 -16t-79 -8q-215 0 -215 208v739h-144z" />
<glyph unicode="u" d="M154 332v722h128v-706q0 -43 19.5 -85.5t52 -77t74 -56t85.5 -21.5q9 -1 18 -1q40 1 81 19q50 22 94.5 62.5t80 93t54.5 106.5v666h128v-1050h-136q9 31 9 67q0 32 -9 61q-78 -78 -154.5 -115t-161.5 -37q-71 0 -136.5 31t-116 81t-80.5 113t-30 127z" />
<glyph unicode="v" horiz-adv-x="1024" d="M74 1054h136l304 -822l303 822h136l-369 -1054h-127z" />
<glyph unicode="w" horiz-adv-x="1479" d="M42 1054h144l240 -846l237 846h146l224 -862l263 862h128l-312 -1054h-159l-224 815l-223 -815h-160z" />
<glyph unicode="x" horiz-adv-x="1024" d="M70 0l362 527l-362 527h165l280 -417l280 417h165l-362 -527l362 -527h-165l-280 431l-280 -431h-165z" />
<glyph unicode="y" horiz-adv-x="1024" d="M33 -318l96 84q54 -48 116 -48h6q105 0 198 326l-367 1010h136l304 -818l295 818h144l-376 -1010q-49 -156 -124 -304.5t-220 -149.5q-118 1 -208 92z" />
<glyph unicode="z" horiz-adv-x="1024" d="M66 0v136l679 798h-639v119h823v-106l-679 -819h711v-128h-895z" />
<glyph unicode="{" horiz-adv-x="684" d="M74 467v135q44 0 82 19.5t65.5 51t43.5 72.5t16 84v331q0 64 11 112.5t36.5 84.5t66 62t100.5 46h138v-125q-57 0 -96 -8t-63.5 -26.5t-35.5 -48.5t-11 -73v-306q0 -59 -11 -106t-36.5 -86.5t-66 -74.5t-100.5 -70q51 -39 91 -74t67 -75.5t41.5 -90.5t14.5 -118v-330 q0 -70 47.5 -101t158.5 -31v-125h-127q-62 18 -105 43.5t-69.5 64.5t-38.5 93t-12 129v314q0 46 -14.5 85t-41.5 68.5t-65.5 48.5t-85.5 25z" />
<glyph unicode="|" horiz-adv-x="532" d="M202 -404v1869h144v-1869h-144z" />
<glyph unicode="}" horiz-adv-x="684" d="M66 -279q57 0 96.5 8t64 27.5t35.5 50.5t11 78v242q0 82 7.5 140t29.5 103t63 82t107 76q-49 37 -87.5 70t-65 71.5t-40.5 88t-14 120.5v306q0 43 -10 72.5t-33.5 48t-63.5 27t-100 8.5v125h131q65 -22 107.5 -50t68 -73t36 -112t10.5 -167v-258q0 -39 15.5 -73t43.5 -61 t65.5 -45t81.5 -24v-135q-48 0 -86 -17.5t-65 -49t-41 -74.5t-14 -94v-339q0 -61 -11 -107.5t-36.5 -81.5t-68.5 -61t-106 -47h-131v125z" />
<glyph unicode="~" horiz-adv-x="1196" d="M98 577v171q0 16 20 38t55 42t83 33.5t104 13.5q34 0 75 -11.5t84.5 -28.5t88.5 -37t87.5 -37t81 -28.5t69.5 -11.5q26 0 58.5 10.5t65.5 28.5t63.5 42.5t54.5 52.5v-188q-34 -34 -62 -55.5t-58 -34t-65.5 -17.5t-84.5 -5q-65 0 -124.5 24t-117 53t-115.5 53t-121 24 q-31 0 -59.5 -7t-57 -22.5t-59 -40.5t-66.5 -62z" />
<glyph unicode="&#xa1;" horiz-adv-x="569" d="M186 0v368l56 710h104l48 -702v-376h-208zM194 1246v192h192v-192h-192z" />
<glyph unicode="&#xa2;" d="M107 526q0 141 37 246.5t100 175.5t148 104.5t181 34.5h5q18 0 43 -2t57 -6l113 387l110 -32l-112 -387q99 -43 152 -115.5t74 -181.5l-175 -27q-26 112 -96 171l-222 -766q33 -9 61 -9q51 0 97 18.5t82 53t60.5 84.5t32.5 114l179 -20q-16 -91 -56.5 -164t-99 -124.5 t-133 -79.5t-159.5 -28q-23 0 -48.5 3.5t-54.5 10.5l-118 -395l-112 32l115 397q-57 28 -105 74t-82.5 109.5t-54 144t-19.5 177.5zM292 535q0 -139 31.5 -226t91.5 -132l223 763q-32 3 -50 3q-71 0 -126 -28.5t-92.5 -81.5t-57.5 -128.5t-20 -169.5z" />
<glyph unicode="&#xa3;" d="M27 145q48 26 89.5 64t73 87t49.5 109.5t18 131.5q0 27 -4.5 58t-12.5 66h-196v148h154q-17 59 -27.5 97.5t-15.5 66.5t-6.5 50.5t-1.5 49.5q0 93 33.5 169.5t93.5 132t143.5 86t183.5 30.5q90 0 165.5 -26t132.5 -74.5t94 -119t51 -159.5l-179 -27q-8 59 -31 107 t-58.5 81.5t-81 51.5t-97.5 18q-55 0 -102 -19t-81.5 -52t-54.5 -77.5t-20 -95.5q0 -112 57 -290h315v-148h-284q19 -37 19 -88q0 -88 -41 -184t-137 -198q63 22 144 22q51 0 96.5 -7t90.5 -18q88 -22 145 -30.5t88 -10.5q57 0 192 56l58 -165q-49 -19 -83 -31t-60.5 -19 t-49.5 -9.5t-50 -2.5q-24 0 -36.5 -0.5t-30.5 3t-51 12.5t-97 29q-63 19 -97 28.5t-54 13.5t-35 3.5t-40 -0.5q-36 0 -75 -6.5t-78.5 -18.5t-77.5 -29t-71 -38z" />
<glyph unicode="&#xa4;" d="M74 354l139 136q-71 110 -71 236q0 125 71 235l-139 136l115 119l139 -139q106 72 237 72q132 0 237 -72l139 139l116 -119l-139 -136q71 -110 71 -235q0 -126 -71 -236l139 -136l-116 -119l-139 140q-103 -73 -237 -73q-131 0 -237 73l-139 -140zM305 726 q0 -53 20.5 -100.5t55.5 -83t82.5 -56t100.5 -20.5t100 20.5t82.5 56t56 83t20.5 100.5t-20.5 100t-55.5 82.5t-82 56t-101 20.5q-53 0 -100 -20.5t-82.5 -56t-56 -82.5t-20.5 -100z" />
<glyph unicode="&#xa5;" d="M-2 1466h199l290 -516q24 -43 42.5 -81t33.5 -73q11 26 32 67t50 96l274 507h214l-405 -711h341v-148h-412v-143h412v-139h-412v-325h-180v325h-415v139h415v143h-415v148h341z" />
<glyph unicode="&#xa6;" horiz-adv-x="570" d="M206 360h157v-790h-157v790zM206 701v790h157v-790h-157z" />
<glyph unicode="&#xa7;" horiz-adv-x="1024" d="M121 484.5v17.5q0 47 13 90t40 84q29 41 61.5 76.5t71.5 62.5q-20 23 -38.5 48.5t-30.5 51.5q-13 29 -20 56.5t-11 54.5q-2 6 -3 12t-1 13v12v12q0 55 15 107.5t48 101.5t77 84t101 55q17 7 34.5 12t37.5 7q21 4 41.5 5t40.5 1q27 0 52.5 -3t51.5 -9q25 -6 47.5 -14.5 t43.5 -20.5q6 -4 10 -10.5t6 -16.5q2 -8 3 -19.5t1 -21.5v-3v-2v-2v-3v-4v-4q-2 -6 -3 -12.5t-1 -12.5v-10v-8q-2 -6 -3 -10.5t-1 -8.5v-7v-7l-57 -2q-9 35 -23 63.5t-37 47.5q-22 18 -56 27t-77 9q-51 0 -94 -18t-78 -55t-52.5 -80t-17.5 -92v-9.5v-9.5v-10t2 -8 q0 -6 1 -11.5t3 -9.5q0 -4 1.5 -9t3.5 -9q12 -39 37.5 -73t64.5 -62q39 -27 82 -54.5t90 -52.5q2 -2 4 -3t4 -1q2 -2 4 -3t4 -3q4 -2 8.5 -4t8.5 -4q41 -25 82 -49.5t80 -48.5q38 -27 68 -57t50 -64q13 -21 21 -39.5t14 -36.5q4 -19 7 -37t5 -35q0 -47 -15 -91t-46 -85 q-31 -39 -64.5 -76t-72.5 -67q26 -25 45.5 -51.5t32.5 -55.5q12 -26 18 -57t6 -64v-4v-4q-2 -55 -19.5 -106t-51.5 -101q-35 -49 -81 -82.5t-106 -52.5q-16 -4 -33.5 -7t-35.5 -5q-9 -2 -18 -3t-17 -1q-11 -2 -19 -2h-18h-11.5h-9.5h-4h-4q-4 2 -6 2h-4q-35 2 -68.5 9 t-68.5 19q-33 13 -60.5 29.5t-50.5 38.5q-6 4 -9 9t-5 12q-2 2 -3 6t-1 6q-2 4 -2 7v7v5v5q0 5 1 7t1 6v5t2 5q0 4 1 6l3 6q2 6 5 12.5t5 12.5q2 2 3 5t3 5q0 4 1 6t3 4q2 4 4 7.5t5 7.5q0 2 2 5t4 7q2 2 3 5t3 7q0 2 1 4t3 4l39 -8v-3v-3v-3v-3q-2 -47 15.5 -82t51.5 -61 q35 -25 76 -38.5t86 -13.5h2h4h4q54 0 99 16.5t84 49.5t58.5 73t19.5 89q0 12 -1.5 24.5t-5.5 24.5q-2 6 -3 12t-3 12q-2 9 -4 15t-6 12q-18 39 -47 68.5t-66 54.5q-37 24 -76.5 48t-80.5 46q-2 0 -5.5 1t-5.5 3h-3t-1 2q-2 0 -3 1t-3 1q-39 21 -77 42.5t-74 45.5 q-37 25 -67 55.5t-52 67.5q-6 10 -11.5 19.5t-9.5 17.5q-4 10 -7 19.5t-5 19.5t-5 19.5t-3 17.5q-2 10 -2 19.5zM227 584q-2 -49 21.5 -92t68.5 -82q48 -39 98 -75t105 -69q27 -14 52.5 -29.5t52.5 -29.5q24 -14 47.5 -28.5t44.5 -26.5v4q24 14 45.5 36.5t36.5 49.5 q16 28 23 56t7 56q0 8 -1 16.5t-1 16.5q-2 6 -4 14.5t-4 16.5q-4 16 -12 29.5t-19 27.5q-22 31 -51.5 59.5t-64.5 53.5q-37 24 -74 47.5t-74 44.5q-16 10 -32.5 19.5t-32.5 17.5q-8 4 -15.5 8t-15.5 10q-8 4 -15 8.5t-14 8.5q-8 4 -16 9t-14 9q-9 4 -16 9t-13 9 q-31 -28 -52.5 -55.5t-33.5 -52.5q-14 -25 -20.5 -49.5t-6.5 -46.5z" />
<glyph unicode="&#xa8;" horiz-adv-x="569" d="M4 1426v165h165v-165h-165zM400 1426v165h165v-165h-165z" />
<glyph unicode="&#xa9;" horiz-adv-x="1509" d="M3 736q0 99 26 193.5t74.5 178.5t116.5 154t152 121t181.5 79.5t204.5 28.5q94 0 186.5 -25t176 -71.5t155.5 -113.5t124.5 -150.5t82 -183t29.5 -211.5q0 -99 -26 -193.5t-74 -178t-116 -153.5t-151.5 -121t-181 -79t-205.5 -28q-97 0 -190.5 25t-177.5 72t-155 114.5 t-122.5 151t-80.5 182t-29 208.5zM128 736q0 -79 21 -156t60 -147t94.5 -129.5t125.5 -103.5t153 -68.5t176 -24.5q81 0 159 21.5t148 61t129 96t102 126t67 151.5t24 173q0 84 -22.5 163.5t-63.5 149.5t-98 128.5t-126.5 100t-149 65t-164.5 23.5h-5q-76 0 -152.5 -20 t-146.5 -58.5t-130.5 -93.5t-105 -125t-70 -154t-25.5 -179zM363 734q0 101 29 180t82.5 134t128 83.5t164.5 28.5q133 0 221 -63.5t120 -172.5l-119 -29q-30 75 -88.5 114t-137.5 39q-57 0 -105.5 -21t-84 -61.5t-55 -99.5t-19.5 -135t18 -134t51.5 -97t80 -59t103.5 -20 q45 0 85.5 13.5t72.5 39t55.5 61t34.5 79.5l123 -36q-15 -62 -48 -112.5t-80 -86.5t-107 -55.5t-129 -19.5q-89 0 -162 30t-125 86t-80.5 135.5t-28.5 178.5z" />
<glyph unicode="&#xaa;" horiz-adv-x="756" d="M68 856v4v4q0 45 19 77t58 52q41 21 84 37.5t90 30.5h4t3 2h4t5 1t5 3q10 2 19.5 5t19.5 5q8 4 18.5 7t18.5 6q18 6 35.5 12t31.5 14v8v11v5t2 5v7v5v12.5v12.5v7t2 7v6v8q0 17 -1 32t-5 30q-2 16 -7 28.5t-13 22.5t-17.5 17.5t-19.5 11.5l-12 4t-11 4q-6 0 -12 1t-12 1 h-5h-7h-5h-4t-3 -1l-2 -2t-2 -1h-3h-3t-2 -1t-2 -1h-3q-27 -8 -43.5 -22.5t-24.5 -33.5q-8 -18 -12 -36.5t-4 -40.5v-3v-3v-5v-3v-3v-4v-3v-3q-2 0 -5 -1t-5 -1q-4 -2 -6.5 -2h-6.5q-6 -2 -11 -3t-9 -1q-10 -2 -20.5 -3t-20.5 -3q-4 -2 -9 -3t-9 -1q-7 -2 -12 -3t-9 -4 q0 3 -1 5t-1 4v6v8v8v9.5v11.5v4t2 6v5v5v4t2 6v5.5v5.5q0 4 1 9t3 11q8 4 15.5 9t15.5 10q8 4 16 9t17 11q12 8 23 15.5t24 15.5q12 6 24.5 13t24.5 15q24 15 51 26t53 19q7 3 13 4t12 1h7t5 2h7h6h9h11h4h6q2 -2 4 -2h4q41 -13 67 -33.5t34 -50.5q10 -31 15 -64t5 -67 v-381l131 -17v-35q-8 -4 -16 -7t-14 -5q-9 -2 -17 -4l-16 -4t-16.5 -4t-16.5 -2q-8 -2 -15 -4t-16 -4q-16 -5 -32.5 -9t-32.5 -8q-17 -2 -32 -5t-32 -7v4v102q-8 -8 -15 -13t-13 -9q-9 -4 -16 -8t-13 -9q-18 -12 -37.5 -23t-42.5 -22q-20 -10 -41.5 -16t-44.5 -6h-3h-3h-4 h-4q-33 0 -63.5 8t-57.5 23q-27 16 -40 41.5t-17 62.5zM199 887q0 -8 5 -23.5t17 -29.5q10 -15 26.5 -23t37.5 -10q4 -2 7 -2h5h7h5q23 0 42.5 5t39.5 13q10 4 19.5 9t19.5 10q8 6 18.5 11t18.5 11q2 0 4 1t4 3t4 3t4 3v4v207q-12 -8 -25.5 -14t-29.5 -10 q-16 -6 -32.5 -12.5t-33.5 -12.5q-26 -12 -52.5 -24.5t-51.5 -26.5t-39 -31.5t-18 -36.5v-3v-2v-2t-1 -2t-1 -2v-2v-2v-9z" />
<glyph unicode="&#xab;" d="M134 528l319 456h148l-261 -456l259 -456h-146zM526 528l313 456h152l-264 -456l264 -456h-152z" />
<glyph unicode="&#xac;" horiz-adv-x="750" d="M90 483v107h569v-107h-569z" />
<glyph unicode="&#xad;" horiz-adv-x="818" d="M31 385v150h620v-150h-620z" />
<glyph unicode="&#xae;" horiz-adv-x="1509" d="M3 736q0 99 26 193.5t74.5 178.5t116.5 154t152 121t181.5 79.5t204.5 28.5q94 0 186.5 -25t176 -71.5t155.5 -113.5t124.5 -150.5t82 -183t29.5 -211.5q0 -99 -26 -193.5t-74 -178t-116 -153.5t-151.5 -121t-181 -79t-205.5 -28q-97 0 -190.5 25t-177.5 72t-155 114.5 t-122.5 151t-80.5 182t-29 208.5zM128 736q0 -79 21 -156t60 -147t94.5 -129.5t125.5 -103.5t153 -68.5t176 -24.5q81 0 159 21.5t148 61t129 96t102 126t67 151.5t24 173q0 84 -22.5 163.5t-63.5 149.5t-98 128.5t-126.5 100t-149 65t-164.5 23.5h-5q-76 0 -152.5 -20 t-146.5 -58.5t-130.5 -93.5t-105 -125t-70 -154t-25.5 -179zM427 319v812h279q77 0 141 -10.5t109.5 -35.5t71 -67.5t25.5 -106.5q0 -45 -17 -85t-47.5 -71t-73.5 -50t-94 -23q28 -12 50 -27.5t43.5 -39.5t44 -57.5t51.5 -79.5l99 -159h-160l-72 128q-38 67 -65.5 109.5 t-53.5 66.5t-54.5 32.5t-68.5 8.5h-77v-345h-131zM558 776h159q59 0 97 9.5t60.5 26t31 39t8.5 49.5q0 66 -52 93.5t-155 27.5h-149v-245z" />
<glyph unicode="&#xaf;" horiz-adv-x="1140" d="M-13 1427v56h1165v-56h-1165z" />
<glyph unicode="&#xb0;" horiz-adv-x="819" d="M128 1214q0 57 22 107.5t60 88t88 59.5t107 22t108 -22t88.5 -59.5t59.5 -88t22 -107.5t-22 -107.5t-59.5 -88.5t-88.5 -60t-108 -22t-107 22t-88 59.5t-60 88t-22 108.5zM237 1214q0 -35 13 -66t36 -54t54 -36t66 -13q34 0 65 13.5t53.5 36.5t36 53.5t13.5 65.5 q0 34 -13.5 64.5t-36.5 54t-53.5 37t-64.5 13.5q-35 0 -65.5 -13.5t-53.5 -36.5t-36.5 -53.5t-13.5 -65.5z" />
<glyph unicode="&#xb1;" horiz-adv-x="1704" d="M252 41v115h1200v-115h-1200zM252 721v115h545v344h114v-344h541v-115h-541v-344h-114v344h-545z" />
<glyph unicode="&#xb2;" horiz-adv-x="864" d="M27 1345l11 24q2 6 3.5 10l3 8t4 9.5t7.5 13.5v2q11 17 20.5 29t19.5 21.5t21 17t26 16.5h-1q29 20 67 29.5t89 9.5q55 0 99 -15t77 -43q13 -11 27 -24.5t25.5 -31.5t18.5 -40.5t7 -52.5v-2q0 -29 -6 -51t-16.5 -41t-26.5 -37.5t-35 -40.5q-17 -18 -55 -52t-104 -87 q-22 -18 -44 -40t-41.5 -45t-34.5 -45.5t-23 -41.5h381v-65h-515q2 27 13 59t29.5 64.5t44 64t56.5 57.5q15 13 24.5 21.5t15.5 13.5t10 8l8 6l102 86v1q97 90 97 169q0 23 -7.5 47.5t-22.5 45.5q-41 47 -105 47q-30 0 -56 -9t-49 -31q-20 -20 -28 -51t-11 -57h-28 q-20 0 -44 6t-54 17z" />
<glyph unicode="&#xb3;" horiz-adv-x="866" d="M25 973q20 4 36.5 6.5t30.5 2.5q10 0 22.5 -1.5t27.5 -3.5q7 -35 19 -61t18 -32q8 -12 17.5 -19.5t14.5 -10.5q17 -11 33.5 -15t33.5 -4q56 0 102 46q41 41 41 114q0 83 -44 119v-1q-42 33 -101 33q-8 0 -16 -0.5t-16 -1.5l-30 -1v64q82 0 127 33q25 18 35.5 42.5 t10.5 59.5q0 61 -31 92q-39 36 -80 36q-13 0 -28.5 -5.5t-32.5 -14.5q-16 -8 -31 -29q-16 -22 -23 -55l-6 -41q-14 -2 -21.5 -2.5t-13.5 -0.5q-20 0 -39.5 8t-42.5 22q14 45 36 79.5t50 58.5q25 20 64 32.5t88 12.5q50 0 88 -15t70 -41q73 -61 73 -139q0 -41 -26 -82v1 q-5 -8 -10 -15t-12.5 -14.5t-19 -16t-28.5 -18.5l-5 -5t-8 -5q5 -3 10 -5t9 -4l22 -12t20 -11t15 -9t7 -5l-1 1q16 -14 27 -27t18 -29t10.5 -36t5.5 -46v-2q0 -48 -17.5 -88.5t-57.5 -75.5q-72 -66 -188 -66q-46 0 -80 8t-59 22t-43 32.5t-31 39.5q-9 14 -19 42t-21 59z" />
<glyph unicode="&#xb4;" horiz-adv-x="0" d="M-469 1178l128 272h232l-224 -272h-136z" />
<glyph unicode="&#xb5;" horiz-adv-x="1120" d="M-72 -334q0 34 6.5 70t16 72t20 71.5t19.5 69.5q21 81 43 163.5t39 165.5q5 26 10 48t10 43l109 516h147q-28 -126 -47 -213t-31.5 -144.5t-19 -89t-10 -47.5t-4 -20t-0.5 -6q-4 -19 -5.5 -38t-1.5 -39q0 -35 7.5 -68.5t25 -59t46.5 -41t73 -15.5q66 0 110 20t73 62 t49 86.5t32 96.5q2 2 29 130.5t82 385.5h151l-114 -529q-3 -16 -7.5 -30t-8 -28.5t-6 -31t-2.5 -35.5q0 -24 4.5 -46.5t15 -40t28 -28t43.5 -10.5q44 0 75 22t52 58q9 15 16.5 38t17 45.5t22 38.5t30.5 16q15 0 15 -25q0 -12 -3 -27t-7 -29l-7 -24.5t-4 -13.5 q-17 -67 -57 -125q-31 -45 -76.5 -71.5t-99.5 -26.5q-39 0 -70.5 13.5t-53 36.5t-33.5 55t-12 68q0 18 3 38q-18 -47 -43.5 -86t-59 -66.5t-76.5 -43t-96 -15.5q-105 0 -157.5 51t-71.5 155q-13 -66 -26.5 -143t-20.5 -154q-3 -38 -6.5 -84.5t-14 -91t-32.5 -79.5t-62 -50 q-35 0 -54.5 23.5t-19.5 56.5z" />
<glyph unicode="&#xb6;" horiz-adv-x="980" d="M10 930q0 164 103 264q102 102 309 102h553v-133h-127v-1515h-131v1515h-219v-1515h-127v932q-92 0 -152 26q-8 2 -16.5 6.5t-17.5 9.5q-10 5 -18.5 10.5t-18 13t-20.5 16.5t-26 22q-48 51 -70 109.5t-22 136.5zM150 934q0 -92 66 -156q67 -65 155 -65v450 q-93 0 -158 -68q-63 -68 -63 -161z" />
<glyph unicode="&#xb7;" horiz-adv-x="626" d="M205 682v223h223v-223h-223z" />
<glyph unicode="&#xb8;" horiz-adv-x="1024" d="M276 -369l31 76q35 -13 68.5 -27.5t70.5 -25.5q24 -5 49 -10t51 -5q28 0 50 7q29 6 44.5 29t15.5 51q0 19 -7 34q-10 36 -38 48t-60 12q-19 0 -37.5 -2.5t-34.5 -5.5v168h66v-93q31 6 61 6q45 0 85 -16.5t69 -56.5q14 -20 21 -42.5t7 -45.5q0 -27 -8.5 -53t-23.5 -48 t-36.5 -39t-47.5 -24q-23 -9 -46 -12.5t-46 -3.5q-41 0 -81 8.5t-81 19.5q-37 11 -72 24t-70 27z" />
<glyph unicode="&#xb9;" horiz-adv-x="860" d="M133 1255v82q50 16 123 74q32 25 54.5 53.5t39.5 60.5h85v-745h-120v558q-45 -28 -95 -50t-87 -33z" />
<glyph unicode="&#xba;" horiz-adv-x="815" d="M51 1075q0 78 21.5 139.5t64.5 110.5t105.5 77t144.5 34h4h4h4t4 2h7h4h4q82 0 145.5 -27t108.5 -80q47 -51 69.5 -115.5t22.5 -140.5t-22.5 -139.5t-65.5 -114.5q-45 -51 -108.5 -76.5t-147.5 -27.5v4q-90 -4 -158.5 19.5t-116.5 72.5q-47 49 -70.5 114.5t-23.5 147.5z M190 1100q0 -2 3 -4v-3v-2v-2.5v-3.5v-3v-2v-2v-3q0 -12 2 -24.5t4 -24.5q2 -14 5 -26.5t5 -24.5q10 -41 25.5 -78t39.5 -72q25 -32 61 -48.5t85 -16.5h4h4h4h4v4q47 2 80 18.5t53 48.5q21 33 33 69t19 75v9t2 9v9.5v9.5v9t2 11v9.5v9.5v7v5v7v5v9.5v11.5q-2 4 -2 10v12 q-2 10 -3.5 21.5t-3.5 23.5q-8 43 -23 82t-40 76q-25 35 -61.5 53.5t-90.5 18.5h-3h-2t-28.5 -1t-66.5 -20.5t-61 -56.5q-21 -37 -33 -78t-14 -84q-3 -6 -3 -11v-9v-9v-8v-5v-7v-4z" />
<glyph unicode="&#xbb;" d="M140 72l264 456l-264 456h151l314 -456l-314 -456h-151zM530 984h148l319 -456l-319 -456h-147l260 456z" />
<glyph unicode="&#xbc;" horiz-adv-x="1708" d="M107 1174v123q30 9 66 28.5t72 45t68.5 55t54.5 58.5h108v-751h-145v554q-103 -82 -224 -113zM252 -56l1102 1547h156l-1107 -1547h-151zM1047 123v123l405 474h122v-489h104v-108h-104v-153h-144v153h-383zM1200 231h230v263z" />
<glyph unicode="&#xbd;" horiz-adv-x="1708" d="M107 1174v123q30 9 66 28.5t72 45t68.5 55t54.5 58.5h108v-751h-145v554q-103 -82 -224 -113zM228 -56l1101 1547h157l-1105 -1547h-153zM1049 -30q8 69 71 143t183 160q80 57 122.5 90.5t61.5 54.5t21.5 36.5t2.5 37.5q0 48 -34.5 78.5t-103.5 30.5q-33 0 -57 -5 t-41.5 -18t-30.5 -35t-23 -55l-151 15q15 56 39.5 97t61.5 67.5t87.5 39.5t117.5 13q75 0 130 -16t91 -43.5t53.5 -64.5t17.5 -79q0 -40 -7.5 -72t-34.5 -67.5t-79.5 -80.5t-141.5 -111q-47 -35 -75.5 -58.5t-43.5 -37.5h386v-120h-623z" />
<glyph unicode="&#xbe;" horiz-adv-x="1708" d="M33 929l146 15q22 -65 61.5 -88.5t92.5 -23.5q35 0 64 10.5t49.5 28.5t32 42t11.5 52q0 50 -36 80t-120 30q-50 -3 -58 -3l22 110q81 0 118.5 28.5t37.5 73.5q0 37 -29.5 63t-89.5 26q-56 0 -87.5 -22t-54.5 -80l-143 23q21 53 45.5 89.5t58 59t78 32t104.5 9.5 q72 0 124 -14.5t85.5 -39.5t49.5 -59.5t16 -73.5q0 -55 -35.5 -98t-102.5 -62q91 -22 132 -72t41 -119q0 -47 -20.5 -88.5t-59.5 -73.5t-95.5 -50.5t-128.5 -18.5q-140 0 -214 55.5t-95 158.5zM252 -56l1101 1547h157l-1101 -1547h-157zM1047 123v123l404 474h123v-489h104 v-108h-104v-153h-145v153h-382zM1200 231h229v263z" />
<glyph unicode="&#xbf;" d="M106 379q22 8 37.5 13.5t32 8.5t37.5 5t53 4q10 -69 37 -123t66.5 -91.5t90 -57.5t109.5 -20q61 0 115 24t94.5 63t64 88.5t23.5 101.5q0 51 -21.5 92t-54.5 77t-72.5 70.5t-75.5 72.5q-51 54 -88.5 128.5t-63.5 161.5v108h142q0 -59 17 -130q6 -23 9.5 -39.5t8.5 -30 t13.5 -26t24 -29t40.5 -39t63 -55.5q60 -52 101.5 -97t67 -88.5t37 -88.5t11.5 -96q0 -87 -35 -158t-96.5 -121.5t-145 -78.5t-179.5 -28q-91 0 -159 12.5t-121 52t-96.5 114.5t-86.5 200zM482 1288v174h175v-174h-175z" />
<glyph unicode="&#xc0;" horiz-adv-x="1366" d="M18 0l219 579l257 681l72 190h210l72 -190l257 -681l219 -579h-184l-169 446h-600l-169 -446h-184zM395 1850h232l128 -272h-136zM422 579h498l-249 680z" />
<glyph unicode="&#xc1;" horiz-adv-x="1366" d="M18 0l219 579l257 681l72 190h210l72 -190l257 -681l219 -579h-184l-169 446h-600l-169 -446h-184zM422 579h498l-249 680zM608 1578l128 272h232l-224 -272h-136z" />
<glyph unicode="&#xc2;" horiz-adv-x="1366" d="M18 0l219 579l257 681l72 190h210l72 -190l257 -681l219 -579h-184l-169 446h-600l-169 -446h-184zM355 1571l216 280h192l225 -280h-204l-110 170l-113 -170h-206zM422 579h498l-249 680z" />
<glyph unicode="&#xc3;" horiz-adv-x="1366" d="M18 0l219 579l257 681l72 190h210l72 -190l257 -681l219 -579h-184l-169 446h-600l-169 -446h-184zM337 1579q-1 104 57 166q57 62 146 62q62 0 169 -54q59 -30 94 -30q32 0 49 17.5t24 69.5h130q-3 -114 -57.5 -171t-138.5 -57q-63 0 -166 56q-67 36 -98 36 q-34 0 -55 -24q-22 -24 -21 -71h-133zM422 579h498l-249 680z" />
<glyph unicode="&#xc4;" horiz-adv-x="1366" d="M18 0l219 579l257 681l72 190h210l72 -190l257 -681l219 -579h-184l-169 446h-600l-169 -446h-184zM397 1579v165h165v-165h-165zM422 579h498l-249 680zM793 1579v165h165v-165h-165z" />
<glyph unicode="&#xc5;" horiz-adv-x="1366" d="M18 0l219 579l257 681l72 190h210l72 -190l257 -681l219 -579h-184l-169 446h-600l-169 -446h-184zM422 579h498l-249 680zM487 1641q0 38 15 71.5t40.5 59t59 40t71.5 14.5t72 -14.5t59.5 -40t40 -59t14.5 -71.5q0 -39 -14.5 -72.5t-40 -59t-59.5 -40.5t-72 -15 t-71.5 15t-59 40t-40.5 59t-15 73zM560 1641q0 -24 9 -44.5t24.5 -36t36 -24.5t44.5 -9q22 0 43 9.5t36 24.5t24 35.5t9 44.5q0 22 -9 42.5t-24.5 36.5t-36 25t-42.5 9q-24 0 -44.5 -9t-35.5 -24.5t-24.5 -36t-9.5 -43.5z" />
<glyph unicode="&#xc6;" horiz-adv-x="1753" d="M18 0l728 1450h901v-142h-612v-494h505v-142h-505v-530h645v-142h-812v672h-328l-327 -672h-195zM609 814h259v523l-12 -17z" />
<glyph unicode="&#xc7;" horiz-adv-x="1479" d="M113 736q20 717 678 734q437 0 553 -416l-159 -34q-87 303 -406 304q-491 -10 -499 -600q-5 -588 486 -610q344 0 421 365l157 -33q-89 -455 -565 -466q-662 17 -666 756zM533 -370l31 76q35 -13 68.5 -27.5t70.5 -25.5q24 -5 49 -10t51 -5q28 0 50 7q29 6 44.5 29 t15.5 51q0 19 -7 34q-10 36 -38 48t-60 12q-19 0 -37.5 -2.5t-34.5 -5.5v168h66v-93q31 6 61 6q45 0 85 -16.5t69 -56.5q14 -20 21 -42.5t7 -45.5q0 -27 -8.5 -53t-23.5 -48t-36.5 -39t-47.5 -24q-23 -9 -46 -12.5t-46 -3.5q-41 0 -81 8.5t-81 19.5q-37 11 -72 24t-70 27z " />
<glyph unicode="&#xc8;" horiz-adv-x="1366" d="M178 0v1450h1029v-142h-862v-494h805v-142h-805v-530h895v-142h-1062zM479 1850h232l128 -272h-136z" />
<glyph unicode="&#xc9;" horiz-adv-x="1366" d="M178 0v1450h1029v-142h-862v-494h805v-142h-805v-530h895v-142h-1062zM568 1578l128 272h232l-224 -272h-136z" />
<glyph unicode="&#xca;" horiz-adv-x="1366" d="M178 0v1450h1029v-142h-862v-494h805v-142h-805v-530h895v-142h-1062zM408 1570l216 280h192l225 -280h-204l-110 170l-113 -170h-206z" />
<glyph unicode="&#xcb;" horiz-adv-x="1366" d="M178 0v1450h1029v-142h-862v-494h805v-142h-805v-530h895v-142h-1062zM435 1579v165h165v-165h-165zM831 1579v165h165v-165h-165z" />
<glyph unicode="&#xcc;" horiz-adv-x="569" d="M19 1850h232l128 -272h-136zM192 0v1450h184v-1450h-184z" />
<glyph unicode="&#xcd;" horiz-adv-x="569" d="M191 1578l128 272h232l-224 -272h-136zM192 0v1450h184v-1450h-184z" />
<glyph unicode="&#xce;" horiz-adv-x="569" d="M-33 1570l216 280h192l225 -280h-204l-110 170l-113 -170h-206zM192 0v1450h184v-1450h-184z" />
<glyph unicode="&#xcf;" horiz-adv-x="569" d="M6 1578v165h165v-165h-165zM192 0v1450h184v-1450h-184zM402 1578v165h165v-165h-165z" />
<glyph unicode="&#xd0;" horiz-adv-x="1479" d="M44 650v150h126v650h607q133 0 239.5 -53t180.5 -149t114 -229.5t40 -294.5q0 -168 -40.5 -302t-116.5 -227.5t-185.5 -144t-247.5 -50.5h-591v650h-126zM345 150h383q104 0 186 39.5t138.5 114.5t86 183t29.5 245q0 136 -26 242t-76 178.5t-125 110t-172 37.5h-424v-500 h319v-150h-319v-500z" />
<glyph unicode="&#xd1;" horiz-adv-x="1479" d="M170 0v1450h175l787 -1180v1180h164v-1450h-175l-787 1180v-1180h-164zM407 1578q-1 104 57 166q57 62 146 62q62 0 169 -54q59 -30 94 -30q32 0 49 17.5t24 69.5h130q-3 -114 -57.5 -171t-138.5 -57q-63 0 -166 56q-67 36 -98 36q-34 0 -55 -24q-22 -24 -21 -71h-133z " />
<glyph unicode="&#xd2;" horiz-adv-x="1593" d="M113 712q0 175 48 315.5t137.5 238.5t216 151t282.5 53q101 0 191 -25.5t165.5 -73t136 -115t102.5 -151t64.5 -181t22.5 -204.5q0 -171 -47 -308t-135.5 -233t-214.5 -147.5t-285 -51.5q-149 0 -274.5 54.5t-216.5 152t-142 232t-51 293.5zM296 704q0 -128 34.5 -234.5 t99.5 -184t158 -120.5t209 -43t208.5 43t157 121.5t99 189t34.5 244.5q0 132 -34.5 242.5t-99 190t-157 123.5t-208.5 44q-114 0 -207 -45t-158 -126t-100.5 -194.5t-35.5 -250.5zM549 1851h232l128 -272h-136z" />
<glyph unicode="&#xd3;" horiz-adv-x="1593" d="M113 712q0 175 48 315.5t137.5 238.5t216 151t282.5 53q101 0 191 -25.5t165.5 -73t136 -115t102.5 -151t64.5 -181t22.5 -204.5q0 -171 -47 -308t-135.5 -233t-214.5 -147.5t-285 -51.5q-149 0 -274.5 54.5t-216.5 152t-142 232t-51 293.5zM296 704q0 -128 34.5 -234.5 t99.5 -184t158 -120.5t209 -43t208.5 43t157 121.5t99 189t34.5 244.5q0 132 -34.5 242.5t-99 190t-157 123.5t-208.5 44q-114 0 -207 -45t-158 -126t-100.5 -194.5t-35.5 -250.5zM730 1578l128 272h232l-224 -272h-136z" />
<glyph unicode="&#xd4;" horiz-adv-x="1593" d="M113 712q0 175 48 315.5t137.5 238.5t216 151t282.5 53q101 0 191 -25.5t165.5 -73t136 -115t102.5 -151t64.5 -181t22.5 -204.5q0 -171 -47 -308t-135.5 -233t-214.5 -147.5t-285 -51.5q-149 0 -274.5 54.5t-216.5 152t-142 232t-51 293.5zM296 704q0 -128 34.5 -234.5 t99.5 -184t158 -120.5t209 -43t208.5 43t157 121.5t99 189t34.5 244.5q0 132 -34.5 242.5t-99 190t-157 123.5t-208.5 44q-114 0 -207 -45t-158 -126t-100.5 -194.5t-35.5 -250.5zM482 1570l216 280h192l225 -280h-204l-110 170l-113 -170h-206z" />
<glyph unicode="&#xd5;" horiz-adv-x="1593" d="M113 712q0 175 48 315.5t137.5 238.5t216 151t282.5 53q101 0 191 -25.5t165.5 -73t136 -115t102.5 -151t64.5 -181t22.5 -204.5q0 -171 -47 -308t-135.5 -233t-214.5 -147.5t-285 -51.5q-149 0 -274.5 54.5t-216.5 152t-142 232t-51 293.5zM296 704q0 -128 34.5 -234.5 t99.5 -184t158 -120.5t209 -43t208.5 43t157 121.5t99 189t34.5 244.5q0 132 -34.5 242.5t-99 190t-157 123.5t-208.5 44q-114 0 -207 -45t-158 -126t-100.5 -194.5t-35.5 -250.5zM473 1579q-1 104 57 166q57 62 146 62q62 0 169 -54q59 -30 94 -30q32 0 49 17.5t24 69.5 h130q-3 -114 -57.5 -171t-138.5 -57q-63 0 -166 56q-67 36 -98 36q-34 0 -55 -24q-22 -24 -21 -71h-133z" />
<glyph unicode="&#xd6;" horiz-adv-x="1593" d="M113 712q0 175 48 315.5t137.5 238.5t216 151t282.5 53q101 0 191 -25.5t165.5 -73t136 -115t102.5 -151t64.5 -181t22.5 -204.5q0 -171 -47 -308t-135.5 -233t-214.5 -147.5t-285 -51.5q-149 0 -274.5 54.5t-216.5 152t-142 232t-51 293.5zM296 704q0 -128 34.5 -234.5 t99.5 -184t158 -120.5t209 -43t208.5 43t157 121.5t99 189t34.5 244.5q0 132 -34.5 242.5t-99 190t-157 123.5t-208.5 44q-114 0 -207 -45t-158 -126t-100.5 -194.5t-35.5 -250.5zM529 1579v165h165v-165h-165zM925 1579v165h165v-165h-165z" />
<glyph unicode="&#xd7;" horiz-adv-x="1196" d="M161 409l315 315l-314 314l122 122l314 -314l313 313l120 -121l-312 -313l314 -314l-122 -122l-314 314l-315 -315z" />
<glyph unicode="&#xd8;" horiz-adv-x="1593" d="M113 712q0 175 48 315.5t137.5 238.5t216 151t282.5 53q101 0 191 -26q85 -24 157 -68l64 89h237l-153 -213q58 -66 99 -147q42 -83 64.5 -180.5t22.5 -204.5q0 -171 -47 -308t-135.5 -233t-214.5 -147.5t-285 -51.5q-149 0 -275 54q-41 18 -78 40l-54 -74h-240l144 199 q-83 93 -130 219q-51 135 -51 294zM296 704q0 -128 34 -235q24 -74 63 -134l660 914q-23 15 -48 27q-92 44 -208 44q-114 0 -207 -45t-158 -126t-100.5 -194.5t-35.5 -250.5zM531 196q27 -17 57 -31q93 -43 209 -43t208.5 43t157 121.5t99 189t34.5 244.5q0 132 -35 242 q-26 84 -69 150z" />
<glyph unicode="&#xd9;" horiz-adv-x="1479" d="M178 496v954h167v-946q0 -92 26 -163t76 -120t122 -74t164 -25q198 0 297 98.5t99 299.5v930h167v-946q0 -126 -39 -223.5t-112 -164t-176 -101.5t-232 -35q-135 0 -239 34t-175.5 100t-108 162t-36.5 220zM484 1850h232l128 -272h-136z" />
<glyph unicode="&#xda;" horiz-adv-x="1479" d="M178 496v954h167v-946q0 -92 26 -163t76 -120t122 -74t164 -25q198 0 297 98.5t99 299.5v930h167v-946q0 -126 -39 -223.5t-112 -164t-176 -101.5t-232 -35q-135 0 -239 34t-175.5 100t-108 162t-36.5 220zM585 1579l128 272h232l-224 -272h-136z" />
<glyph unicode="&#xdb;" horiz-adv-x="1479" d="M178 496v954h167v-946q0 -92 26 -163t76 -120t122 -74t164 -25q198 0 297 98.5t99 299.5v930h167v-946q0 -126 -39 -223.5t-112 -164t-176 -101.5t-232 -35q-135 0 -239 34t-175.5 100t-108 162t-36.5 220zM425 1570l216 280h192l225 -280h-204l-110 170l-113 -170h-206z " />
<glyph unicode="&#xdc;" horiz-adv-x="1479" d="M178 496v954h167v-946q0 -92 26 -163t76 -120t122 -74t164 -25q198 0 297 98.5t99 299.5v930h167v-946q0 -126 -39 -223.5t-112 -164t-176 -101.5t-232 -35q-135 0 -239 34t-175.5 100t-108 162t-36.5 220zM472 1579v165h165v-165h-165zM868 1579v165h165v-165h-165z" />
<glyph unicode="&#xdd;" horiz-adv-x="1366" d="M18 1450h207l448 -698l448 698h207l-568 -850v-600h-174v600zM572 1578l128 272h232l-224 -272h-136z" />
<glyph unicode="&#xde;" horiz-adv-x="1180" d="M66 0v74l196 36v1168l-196 34v74h570v-74l-190 -34v-114h210l96 -8t94 -12t87 -30t79 -56q24 -24 43 -53t33 -63q12 -32 19 -67t9 -71v-4v-4v-4v-4q0 -30 -4 -59t-10 -57q-8 -28 -18 -54t-26 -48q-34 -58 -79 -99t-99 -65t-112 -36t-118 -12h-32t-32 2q-8 0 -16 1t-14 3 q-8 0 -16 1t-16 3l-8 74q14 -8 27 -11t27 -5t27 -2h27q62 0 113 19t93 57q40 38 61 93t23 129v7v5v7v7v8v8v4v6q-2 2 -2 4v4q-2 42 -14 84t-34 80q-20 40 -52 69t-74 47q-20 8 -39 14t-41 8q-10 2 -21 3t-21 1q-12 2 -23 2h-21h-5h-5h-6h-6h-11h-9q-12 -2 -23 -2h-21h-11h-9 q-6 -2 -11 -2h-9v-976l210 -36v-74h-590z" />
<glyph unicode="&#xdf;" horiz-adv-x="1192" d="M50 0v66l160 28v843q0 68 3.5 137t18.5 134.5t45 125t83 108.5q27 25 60.5 45t70 33.5t75 20.5t76.5 7h19q56 0 111.5 -20t100 -56t72 -86.5t27.5 -111.5v-15q0 -35 -10 -66.5t-26.5 -61t-37.5 -56t-43 -50.5q-16 -17 -34 -35t-34 -38t-26.5 -42.5t-10.5 -47.5v-2 q0 -20 7 -37.5t17.5 -33.5t24 -30t27.5 -27l8 -8q50 -45 101 -84.5t96 -90.5q22 -24 42 -52.5t35.5 -60.5t24.5 -65.5t9 -67.5v-11q0 -56 -20 -109.5t-55.5 -97t-84.5 -73t-106 -36.5q-23 -3 -46 -3q-44 0 -87.5 11t-79.5 33.5t-61 58t-32 84.5l44 28q6 -35 24 -63.5 t43.5 -49t56 -33.5t62.5 -16l14 -1q36 0 67.5 16.5t54.5 43.5t36.5 60.5t13.5 68.5v4q0 30 -8 61t-22 60.5t-32 56.5t-38 50q-50 51 -109.5 96.5t-110.5 96.5q-56 56 -56 126q0 23 7 45.5t21 43.5q22 31 47.5 59.5t51 56.5t48.5 58.5t38 66.5q18 42 27 81.5t9 81.5v16t-1 16 q-5 40 -25 75.5t-49.5 62t-67 41.5t-77.5 15h-11q-36 0 -70.5 -11t-63.5 -31.5t-51.5 -48.5t-33.5 -62q-18 -54 -25 -110t-7 -113v-1014l147 -28v-66h-474z" />
<glyph unicode="&#xe0;" d="M121 236q0 131 63 212t193 108q29 6 47 9.5t34 6.5t32.5 5.5t42 7.5t63.5 13t96 21q98 21 125 24v144q-38 84 -94 122.5t-146 38.5q-115 0 -199 -60.5t-120 -172.5l-22 5.5t-22.5 5.5t-30 6t-45.5 7q5 42 26.5 83t54.5 78t75.5 69t90 55.5t97.5 36.5t99 13 q70 0 135.5 -21.5t116.5 -58.5t81.5 -86.5t30.5 -104.5v-479q5 -57 10.5 -101.5t12 -80.5t14.5 -65.5t19 -56.5q-29 -8 -60.5 -17.5t-59.5 -22.5q-32 69 -39 111.5t-9 48.5q-44 -44 -85 -74.5t-83 -49.5t-87 -27.5t-97 -8.5q-187 0 -273.5 62.5t-86.5 193.5zM257 248 q0 -66 56.5 -99t167.5 -33q54 0 98 15.5t82.5 40t74 56t73.5 64.5v223q-13 -5 -47 -12t-78 -15.5t-94.5 -18.5t-96.5 -20t-83 -20.5t-56 -20.5q-97 -52 -97 -160zM339 1450h232l128 -272h-136z" />
<glyph unicode="&#xe1;" d="M121 236q0 131 63 212t193 108q29 6 47 9.5t34 6.5t32.5 5.5t42 7.5t63.5 13t96 21q98 21 125 24v144q-38 84 -94 122.5t-146 38.5q-115 0 -199 -60.5t-120 -172.5l-22 5.5t-22.5 5.5t-30 6t-45.5 7q5 42 26.5 83t54.5 78t75.5 69t90 55.5t97.5 36.5t99 13 q70 0 135.5 -21.5t116.5 -58.5t81.5 -86.5t30.5 -104.5v-479q5 -57 10.5 -101.5t12 -80.5t14.5 -65.5t19 -56.5q-29 -8 -60.5 -17.5t-59.5 -22.5q-32 69 -39 111.5t-9 48.5q-44 -44 -85 -74.5t-83 -49.5t-87 -27.5t-97 -8.5q-187 0 -273.5 62.5t-86.5 193.5zM257 248 q0 -66 56.5 -99t167.5 -33q54 0 98 15.5t82.5 40t74 56t73.5 64.5v223q-13 -5 -47 -12t-78 -15.5t-94.5 -18.5t-96.5 -20t-83 -20.5t-56 -20.5q-97 -52 -97 -160zM461 1178l128 272h232l-224 -272h-136z" />
<glyph unicode="&#xe2;" d="M121 236q0 131 63 212t193 108q29 6 47 9.5t34 6.5t32.5 5.5t42 7.5t63.5 13t96 21q98 21 125 24v144q-38 84 -94 122.5t-146 38.5q-115 0 -199 -60.5t-120 -172.5l-22 5.5t-22.5 5.5t-30 6t-45.5 7q5 42 26.5 83t54.5 78t75.5 69t90 55.5t97.5 36.5t99 13 q70 0 135.5 -21.5t116.5 -58.5t81.5 -86.5t30.5 -104.5v-479q5 -57 10.5 -101.5t12 -80.5t14.5 -65.5t19 -56.5q-29 -8 -60.5 -17.5t-59.5 -22.5q-32 69 -39 111.5t-9 48.5q-44 -44 -85 -74.5t-83 -49.5t-87 -27.5t-97 -8.5q-187 0 -273.5 62.5t-86.5 193.5zM255 1175 l216 280h192l225 -280h-204l-110 170l-113 -170h-206zM257 248q0 -66 56.5 -99t167.5 -33q54 0 98 15.5t82.5 40t74 56t73.5 64.5v223q-13 -5 -47 -12t-78 -15.5t-94.5 -18.5t-96.5 -20t-83 -20.5t-56 -20.5q-97 -52 -97 -160z" />
<glyph unicode="&#xe3;" d="M121 236q0 131 63 212t193 108q29 6 47 9.5t34 6.5t32.5 5.5t42 7.5t63.5 13t96 21q98 21 125 24v144q-38 84 -94 122.5t-146 38.5q-115 0 -199 -60.5t-120 -172.5l-22 5.5t-22.5 5.5t-30 6t-45.5 7q5 42 26.5 83t54.5 78t75.5 69t90 55.5t97.5 36.5t99 13 q70 0 135.5 -21.5t116.5 -58.5t81.5 -86.5t30.5 -104.5v-479q5 -57 10.5 -101.5t12 -80.5t14.5 -65.5t19 -56.5q-29 -8 -60.5 -17.5t-59.5 -22.5q-32 69 -39 111.5t-9 48.5q-44 -44 -85 -74.5t-83 -49.5t-87 -27.5t-97 -8.5q-187 0 -273.5 62.5t-86.5 193.5zM217 1170 q-1 104 57 166q57 62 146 62q62 0 169 -54q59 -30 94 -30q32 0 49 17.5t24 69.5h130q-3 -114 -57.5 -171t-138.5 -57q-63 0 -166 56q-67 36 -98 36q-34 0 -55 -24q-22 -24 -21 -71h-133zM257 248q0 -66 56.5 -99t167.5 -33q54 0 98 15.5t82.5 40t74 56t73.5 64.5v223 q-13 -5 -47 -12t-78 -15.5t-94.5 -18.5t-96.5 -20t-83 -20.5t-56 -20.5q-97 -52 -97 -160z" />
<glyph unicode="&#xe4;" d="M121 236q0 131 63 212t193 108q29 6 47 9.5t34 6.5t32.5 5.5t42 7.5t63.5 13t96 21q98 21 125 24v144q-38 84 -94 122.5t-146 38.5q-115 0 -199 -60.5t-120 -172.5l-22 5.5t-22.5 5.5t-30 6t-45.5 7q5 42 26.5 83t54.5 78t75.5 69t90 55.5t97.5 36.5t99 13 q70 0 135.5 -21.5t116.5 -58.5t81.5 -86.5t30.5 -104.5v-479q5 -57 10.5 -101.5t12 -80.5t14.5 -65.5t19 -56.5q-29 -8 -60.5 -17.5t-59.5 -22.5q-32 69 -39 111.5t-9 48.5q-44 -44 -85 -74.5t-83 -49.5t-87 -27.5t-97 -8.5q-187 0 -273.5 62.5t-86.5 193.5zM257 248 q0 -66 56.5 -99t167.5 -33q54 0 98 15.5t82.5 40t74 56t73.5 64.5v223q-13 -5 -47 -12t-78 -15.5t-94.5 -18.5t-96.5 -20t-83 -20.5t-56 -20.5q-97 -52 -97 -160zM279 1144v165h165v-165h-165zM675 1144v165h165v-165h-165z" />
<glyph unicode="&#xe5;" d="M121 236q0 131 63 212t193 108q29 6 47 9.5t34 6.5t32.5 5.5t42 7.5t63.5 13t96 21q98 21 125 24v144q-38 84 -94 122.5t-146 38.5q-115 0 -199 -60.5t-120 -172.5l-22 5.5t-22.5 5.5t-30 6t-45.5 7q5 42 26.5 83t54.5 78t75.5 69t90 55.5t97.5 36.5t99 13 q70 0 135.5 -21.5t116.5 -58.5t81.5 -86.5t30.5 -104.5v-479q5 -57 10.5 -101.5t12 -80.5t14.5 -65.5t19 -56.5q-29 -8 -60.5 -17.5t-59.5 -22.5q-32 69 -39 111.5t-9 48.5q-44 -44 -85 -74.5t-83 -49.5t-87 -27.5t-97 -8.5q-187 0 -273.5 62.5t-86.5 193.5zM257 248 q0 -66 56.5 -99t167.5 -33q54 0 98 15.5t82.5 40t74 56t73.5 64.5v223q-13 -5 -47 -12t-78 -15.5t-94.5 -18.5t-96.5 -20t-83 -20.5t-56 -20.5q-97 -52 -97 -160zM383 1333q0 38 15 71.5t40.5 59t59 40t71.5 14.5t72 -14.5t59.5 -40t40 -59t14.5 -71.5q0 -39 -14.5 -72.5 t-40 -59t-59.5 -40.5t-72 -15t-71.5 15t-59 40t-40.5 59t-15 73zM456 1333q0 -24 9 -44.5t24.5 -36t36 -24.5t44.5 -9q22 0 43 9.5t36 24.5t24 35.5t9 44.5q0 22 -9 42.5t-24.5 36.5t-36 25t-42.5 9q-24 0 -44.5 -9t-35.5 -24.5t-24.5 -36t-9.5 -43.5z" />
<glyph unicode="&#xe6;" horiz-adv-x="1546" d="M49 236q0 132 56 212.5t174 107.5q26 6 42.5 9.5t30.5 6t29 5.5t38 8t57 13t87 21q42 10 68.5 15.5t39.5 7.5l4 18v127q-34 84 -84.5 122.5t-131.5 38.5q-103 0 -178.5 -60.5t-108.5 -172.5q-11 3 -20 5.5t-20 5.5t-27 6t-41 7q5 42 24.5 83t49 78t67.5 69t80.5 55.5 t88 36.5t89.5 13q49 0 95.5 -13t86.5 -36.5t71.5 -55.5t50.5 -70l7 10q53 77 127.5 121t163.5 44q91 0 168 -37.5t132 -101.5t86 -150t31 -182v-136h-692v-69q6 -40 19 -76q24 -66 65 -113.5t98 -74t122 -26.5q101 0 173 56.5t100 159.5q26 -10 51 -20l50 -20 q-16 -66 -51.5 -122t-84 -96.5t-108 -63t-123.5 -22.5q-91 0 -171 42t-140 114q-32 38 -57 84l-43 -80q-40 -44 -77 -74.5t-74.5 -49.5t-78 -27.5t-87.5 -8.5q-168 0 -246 62.5t-78 193.5zM171 248q0 -132 202 -132q48 0 87.5 15.5t74.5 40t67 56t66 64.5v128q-6 45 -6 92v1 q-16 -5 -47 -12.5t-70.5 -16t-83 -18t-83 -19.5t-71.5 -20t-48 -19q-88 -52 -88 -160zM790 603h570q0 69 -21.5 130.5t-60.5 107t-92.5 72.5t-117.5 27q-58 0 -110 -28.5t-90 -75.5t-61 -108q-12 -32 -17 -65v-60z" />
<glyph unicode="&#xe7;" horiz-adv-x="1024" d="M113 516q0 113 33 214t90.5 177.5t136.5 121.5t172 45q66 0 128 -22t116 -63.5t98 -100.5t74 -133q-12 -9 -30.5 -17.5t-36 -15t-30.5 -10.5t-15 -5q-33 59 -65.5 104t-68 75.5t-76.5 46t-90 15.5q-66 0 -122.5 -35.5t-98 -95.5t-64.5 -138t-23 -163q0 -82 24 -156 t66.5 -130t100.5 -89t125 -33q106 0 181 70t119 202q10 -3 26.5 -8t34 -9.5t33.5 -8.5t26 -6q-51 -178 -160 -273t-264 -95q-94 0 -174.5 43t-139.5 116t-92.5 170.5t-33.5 206.5zM326 -371l31 76q35 -13 68.5 -27.5t70.5 -25.5q24 -5 49 -10t51 -5q28 0 50 7q29 6 44.5 29 t15.5 51q0 19 -7 34q-10 36 -38 48t-60 12q-19 0 -37.5 -2.5t-34.5 -5.5v168h66v-93q31 6 61 6q45 0 85 -16.5t69 -56.5q14 -20 21 -42.5t7 -45.5q0 -27 -8.5 -53t-23.5 -48t-36.5 -39t-47.5 -24q-23 -9 -46 -12.5t-46 -3.5q-41 0 -81 8.5t-81 19.5q-37 11 -72 24t-70 27z " />
<glyph unicode="&#xe8;" d="M113 537q0 92 33 194t92 178.5t141.5 120.5t185.5 44q97 0 182.5 -37.5t147 -101.5t96 -150t34.5 -182v-136h-775q0 -79 26.5 -145t72.5 -113.5t95 -74t121 -26.5q113 0 207 56.5t125 159.5q29 -10 56.5 -20t55.5 -20q-18 -66 -57.5 -122t-93.5 -96.5t-138 -63 t-155 -22.5q-101 0 -172 42t-137 114t-104.5 169t-38.5 232zM250 603h639q0 69 -24 130.5t-67 107t-102.5 72.5t-130.5 27q-65 0 -122.5 -28.5t-100 -75.5t-67.5 -108t-25 -125zM329 1450h232l128 -272h-136z" />
<glyph unicode="&#xe9;" d="M113 537q0 92 33 194t92 178.5t141.5 120.5t185.5 44q97 0 182.5 -37.5t147 -101.5t96 -150t34.5 -182v-136h-775q0 -79 26.5 -145t72.5 -113.5t95 -74t121 -26.5q113 0 207 56.5t125 159.5q29 -10 56.5 -20t55.5 -20q-18 -66 -57.5 -122t-93.5 -96.5t-138 -63 t-155 -22.5q-101 0 -172 42t-137 114t-104.5 169t-38.5 232zM250 603h639q0 69 -24 130.5t-67 107t-102.5 72.5t-130.5 27q-65 0 -122.5 -28.5t-100 -75.5t-67.5 -108t-25 -125zM451 1178l128 272h232l-224 -272h-136z" />
<glyph unicode="&#xea;" d="M113 537q0 92 33 194t92 178.5t141.5 120.5t185.5 44q97 0 182.5 -37.5t147 -101.5t96 -150t34.5 -182v-136h-775q0 -79 26.5 -145t72.5 -113.5t95 -74t121 -26.5q113 0 207 56.5t125 159.5q29 -10 56.5 -20t55.5 -20q-18 -66 -57.5 -122t-93.5 -96.5t-138 -63 t-155 -22.5q-101 0 -172 42t-137 114t-104.5 169t-38.5 232zM250 603h639q0 69 -24 130.5t-67 107t-102.5 72.5t-130.5 27q-65 0 -122.5 -28.5t-100 -75.5t-67.5 -108t-25 -125zM255 1171l216 280h192l225 -280h-204l-110 170l-113 -170h-206z" />
<glyph unicode="&#xeb;" d="M113 537q0 92 33 194t92 178.5t141.5 120.5t185.5 44q97 0 182.5 -37.5t147 -101.5t96 -150t34.5 -182v-136h-775q0 -79 26.5 -145t72.5 -113.5t95 -74t121 -26.5q113 0 207 56.5t125 159.5q29 -10 56.5 -20t55.5 -20q-18 -66 -57.5 -122t-93.5 -96.5t-138 -63 t-155 -22.5q-101 0 -172 42t-137 114t-104.5 169t-38.5 232zM250 603h639q0 69 -24 130.5t-67 107t-102.5 72.5t-130.5 27q-65 0 -122.5 -28.5t-100 -75.5t-67.5 -108t-25 -125zM293 1144v165h165v-165h-165zM689 1144v165h165v-165h-165z" />
<glyph unicode="&#xec;" horiz-adv-x="455" d="M-60 1450h232l128 -272h-136zM163 0v1054h128v-1054h-128z" />
<glyph unicode="&#xed;" horiz-adv-x="455" d="M151 1178l128 272h232l-224 -272h-136zM163 0v1054h128v-1054h-128z" />
<glyph unicode="&#xee;" horiz-adv-x="455" d="M-88 1173l216 280h192l225 -280h-204l-110 170l-113 -170h-206zM163 0v1054h128v-1054h-128z" />
<glyph unicode="&#xef;" horiz-adv-x="455" d="M-50 1145v165h165v-165h-165zM163 0v1054h128v-1054h-128zM346 1145v165h165v-165h-165z" />
<glyph unicode="&#xf0;" horiz-adv-x="1062" d="M68 468q0 61 10 122.5t33 117.5t60 103.5t91 82.5q61 39 129 58.5t141 19.5q56 0 111 -10.5t107 -31.5q-32 78 -61 156t-71 152l-246 -124l-36 74l234 120q-54 97 -128 180l62 62q97 -77 180 -190l210 108l32 -74l-192 -98q46 -76 87 -159t79 -171q47 -107 73.5 -220 t26.5 -230q0 -54 -6 -110t-21 -109t-39.5 -102t-61.5 -91q-29 -33 -65.5 -57t-77.5 -40.5t-84.5 -24.5t-86.5 -8q-66 0 -131 6.5t-123 35.5q-63 32 -108 81t-73.5 108.5t-41.5 127t-13 135.5zM249 517q0 -107 27.5 -210t79.5 -181q32 -48 86 -73t111 -25q58 0 110 26t81 80 q37 69 55 149t18 165q0 99 -24 194t-71 172q-32 52 -86 77.5t-114 25.5q-63 0 -120.5 -28t-87.5 -83q-34 -61 -49.5 -135.5t-15.5 -153.5z" />
<glyph unicode="&#xf1;" d="M162 0v1054h134v-135q80 80 156 117.5t161 37.5q47 0 92.5 -15t86 -41t74.5 -61.5t58.5 -75.5t38.5 -83.5t14 -86.5v-711h-128v703q0 46 -22 90t-56 78.5t-76 55.5t-82 21q-44 5 -94.5 -21t-96.5 -69.5t-82 -97.5t-50 -105v-655h-128zM237 1170q-1 104 57 166 q57 62 146 62q62 0 169 -54q59 -30 94 -30q32 0 49 17.5t24 69.5h130q-3 -114 -57.5 -171t-138.5 -57q-63 0 -166 56q-67 36 -98 36q-34 0 -55 -24q-22 -24 -21 -71h-133z" />
<glyph unicode="&#xf2;" d="M105 512q0 111 35 212.5t96 179.5t144.5 124t180.5 46q64 0 123.5 -21t111.5 -58.5t94 -89.5t72 -114.5t46.5 -133t16.5 -145.5q0 -109 -35.5 -206t-98 -169.5t-147 -114.5t-183.5 -42q-96 0 -179.5 42.5t-145 115t-96.5 169t-35 205.5zM241 512q0 -82 27 -154t72 -126 t102.5 -85t118.5 -31q68 0 128 32t104.5 86.5t70 126.5t25.5 151q0 85 -26 162.5t-70.5 136.5t-104.5 94t-127 35q-65 0 -123 -36.5t-101.5 -96.5t-69.5 -137t-26 -158zM289 1450h232l128 -272h-136z" />
<glyph unicode="&#xf3;" d="M105 512q0 111 35 212.5t96 179.5t144.5 124t180.5 46q64 0 123.5 -21t111.5 -58.5t94 -89.5t72 -114.5t46.5 -133t16.5 -145.5q0 -109 -35.5 -206t-98 -169.5t-147 -114.5t-183.5 -42q-96 0 -179.5 42.5t-145 115t-96.5 169t-35 205.5zM241 512q0 -82 27 -154t72 -126 t102.5 -85t118.5 -31q68 0 128 32t104.5 86.5t70 126.5t25.5 151q0 85 -26 162.5t-70.5 136.5t-104.5 94t-127 35q-65 0 -123 -36.5t-101.5 -96.5t-69.5 -137t-26 -158zM491 1178l128 272h232l-224 -272h-136z" />
<glyph unicode="&#xf4;" d="M105 512q0 111 35 212.5t96 179.5t144.5 124t180.5 46q64 0 123.5 -21t111.5 -58.5t94 -89.5t72 -114.5t46.5 -133t16.5 -145.5q0 -109 -35.5 -206t-98 -169.5t-147 -114.5t-183.5 -42q-96 0 -179.5 42.5t-145 115t-96.5 169t-35 205.5zM241 512q0 -82 27 -154t72 -126 t102.5 -85t118.5 -31q68 0 128 32t104.5 86.5t70 126.5t25.5 151q0 85 -26 162.5t-70.5 136.5t-104.5 94t-127 35q-65 0 -123 -36.5t-101.5 -96.5t-69.5 -137t-26 -158zM260 1172l216 280h192l225 -280h-204l-110 170l-113 -170h-206z" />
<glyph unicode="&#xf5;" d="M105 512q0 111 35 212.5t96 179.5t144.5 124t180.5 46q64 0 123.5 -21t111.5 -58.5t94 -89.5t72 -114.5t46.5 -133t16.5 -145.5q0 -109 -35.5 -206t-98 -169.5t-147 -114.5t-183.5 -42q-96 0 -179.5 42.5t-145 115t-96.5 169t-35 205.5zM227 1180q-1 104 57 166 q57 62 146 62q62 0 169 -54q59 -30 94 -30q32 0 49 17.5t24 69.5h130q-3 -114 -57.5 -171t-138.5 -57q-63 0 -166 56q-67 36 -98 36q-34 0 -55 -24q-22 -24 -21 -71h-133zM241 512q0 -82 27 -154t72 -126t102.5 -85t118.5 -31q68 0 128 32t104.5 86.5t70 126.5t25.5 151 q0 85 -26 162.5t-70.5 136.5t-104.5 94t-127 35q-65 0 -123 -36.5t-101.5 -96.5t-69.5 -137t-26 -158z" />
<glyph unicode="&#xf6;" d="M105 512q0 111 35 212.5t96 179.5t144.5 124t180.5 46q64 0 123.5 -21t111.5 -58.5t94 -89.5t72 -114.5t46.5 -133t16.5 -145.5q0 -109 -35.5 -206t-98 -169.5t-147 -114.5t-183.5 -42q-96 0 -179.5 42.5t-145 115t-96.5 169t-35 205.5zM241 512q0 -82 27 -154t72 -126 t102.5 -85t118.5 -31q68 0 128 32t104.5 86.5t70 126.5t25.5 151q0 85 -26 162.5t-70.5 136.5t-104.5 94t-127 35q-65 0 -123 -36.5t-101.5 -96.5t-69.5 -137t-26 -158zM284 1146v165h165v-165h-165zM680 1146v165h165v-165h-165z" />
<glyph unicode="&#xf7;" horiz-adv-x="818" d="M31 385v150h620v-150h-620zM245 -58v192h192v-192h-192zM245 789v191h192v-191h-192z" />
<glyph unicode="&#xf8;" d="M105 512q0 111 35 212.5t96 179.5t144.5 124t180.5 46q44 0 87 -10l57 202h135l-71 -254q14 -8 27 -18q52 -37 94 -89t72 -114.5t46.5 -133t16.5 -145.5q0 -109 -35.5 -206t-98 -169.5t-147 -114.5t-183.5 -42q-41 0 -80 8l-56 -200h-136l69 247q-69 40 -122 102 q-61 73 -96 169.5t-35 205.5zM241 512q0 -82 27 -154t72 -126q27 -33 58 -57l214 760q-25 5 -51 5q-65 0 -123 -36.5t-101.5 -96.5t-69.5 -137t-26 -158zM518 119q21 -3 43 -3q68 0 128 32t104.5 86.5t70 126.5t25.5 151q0 85 -26 162.5t-71 136.5q-28 37 -62 64z" />
<glyph unicode="&#xf9;" d="M154 332v722h128v-706q0 -43 19.5 -85.5t52 -77t74 -56t85.5 -21.5q49 -5 99 17.5t94.5 63t80 93t54.5 106.5v666h128v-1050h-136q9 31 9 67q0 32 -9 61q-78 -78 -154.5 -115t-161.5 -37q-71 0 -136.5 31t-116 81t-80.5 113t-30 127zM299 1450h232l128 -272h-136z" />
<glyph unicode="&#xfa;" d="M154 332v722h128v-706q0 -43 19.5 -85.5t52 -77t74 -56t85.5 -21.5q49 -5 99 17.5t94.5 63t80 93t54.5 106.5v666h128v-1050h-136q9 31 9 67q0 32 -9 61q-78 -78 -154.5 -115t-161.5 -37q-71 0 -136.5 31t-116 81t-80.5 113t-30 127zM431 1178l128 272h232l-224 -272 h-136z" />
<glyph unicode="&#xfb;" d="M154 332v722h128v-706q0 -43 19.5 -85.5t52 -77t74 -56t85.5 -21.5q49 -5 99 17.5t94.5 63t80 93t54.5 106.5v666h128v-1050h-136q9 31 9 67q0 32 -9 61q-78 -78 -154.5 -115t-161.5 -37q-71 0 -136.5 31t-116 81t-80.5 113t-30 127zM245 1172l216 280h192l225 -280h-204 l-110 170l-113 -170h-206z" />
<glyph unicode="&#xfc;" d="M154 332v722h128v-706q0 -43 19.5 -85.5t52 -77t74 -56t85.5 -21.5q49 -5 99 17.5t94.5 63t80 93t54.5 106.5v666h128v-1050h-136q9 31 9 67q0 32 -9 61q-78 -78 -154.5 -115t-161.5 -37q-71 0 -136.5 31t-116 81t-80.5 113t-30 127zM276 1145v165h165v-165h-165z M672 1145v165h165v-165h-165z" />
<glyph unicode="&#xfd;" horiz-adv-x="1024" d="M33 -318l96 84q54 -48 116 -48q108 -9 204 326l-367 1010h136l304 -818l295 818h144l-376 -1010q-49 -156 -124 -304.5t-220 -149.5q-118 1 -208 92zM401 1178l128 272h232l-224 -272h-136z" />
<glyph unicode="&#xfe;" horiz-adv-x="1062" d="M-12 -316l176 26v1688l-156 24v54q10 0 20 1t22 3l20 4l20 4l20 4t22 6l20 4l20 4q12 4 24 7t24 5q6 2 12 3t14 3q6 2 12 3t12 3l16 4l16 4q4 0 8 1t10 3q4 0 8 1t8 3v-8v-6q-2 -4 -2 -8v-8v-15v-15v-4v-4q-2 -2 -2 -4v-4v-8v-8v-8v-8v-8v-8v-606q6 2 13 8t15 12q4 4 8 7 t8 7l6 6t8 6q22 18 47 36t51 34t53 25t53 11h4h4h4t4 2h6h4h4q56 0 107 -18t97 -52q46 -36 78 -79t52 -95q6 -20 12 -41t10 -43q4 -20 7 -41t5 -43v-5t2 -7v-5v-7v-11v-9v-4v-4v-4v-4q-2 -80 -22 -153t-60 -143q-38 -68 -97 -116t-135 -74q-16 -6 -31 -9t-31 -3 q-14 -2 -29 -3t-31 -1q-14 0 -28 1t-28 3q-14 0 -28 2l-28 4q-14 4 -29 8t-29 8t-28 9t-28 11v-332l200 -26v-70h-544v70zM332 180q16 -18 32 -31t34 -25q16 -12 32 -21t32 -17q34 -14 64 -22t60 -8q52 0 96 22t78 66q34 46 52 110t20 148q0 88 -19 163t-59 141 q-38 66 -90 99t-118 33q-24 0 -49 -6t-53 -16q-26 -10 -55 -27t-57 -39v-570z" />
<glyph unicode="&#xff;" horiz-adv-x="1024" d="M33 -318l96 84q54 -48 116 -48q108 -9 204 326l-367 1010h136l304 -818l295 818h144l-376 -1010q-49 -156 -124 -304.5t-220 -149.5q-118 1 -208 92zM241 1146v165h165v-165h-165zM637 1146v165h165v-165h-165z" />
<glyph unicode="&#x152;" horiz-adv-x="2048" d="M129 735q0 322 142 539t450 217q264 0 400 -223v198h831v-173h-650v-448h599v-172h-599v-500h681v-173h-862v212q-135 -237 -400 -237q-301 0 -456 232q-136 205 -136 528zM329 720q0 -303 115.5 -446t275.5 -143q161 0 275.5 142.5t114.5 471.5q0 306 -115.5 447.5 t-274.5 141.5q-101 0 -197 -65t-145 -197.5t-49 -351.5z" />
<glyph unicode="&#x153;" horiz-adv-x="1933" d="M82 518q0 170 58 302q58 133 178 200q120 66 266 66q139 0 240 -58q103 -57 154 -145q64 94 164 148.5t225 54.5q220 0 356 -151q134 -149 134 -445v-7h-784q3 -166 92 -263q88 -96 224 -96q100 0 171 55t103 167l180 -26q-43 -166 -160 -255t-297 -89q-135 0 -240 52.5 t-168 146.5q-152 -199 -396 -199q-225 0 -363 143q-137 143 -137 399zM267 533q0 -185 71 -283q91 -126 239 -126q130 0 221 106q92 107 92 305q0 197 -91 300q-90 103 -222 103q-87 0 -160 -49q-36 -24 -64 -61.5t-47 -83.5t-29 -100t-10 -111zM1080 631h587 q-12 150 -92 229q-80 78 -197 78q-121 0 -204 -82q-84 -84 -94 -225z" />
<glyph unicode="&#x178;" horiz-adv-x="1453" d="M18 1450h207l448 -698l448 698h207l-568 -850v-600h-174v600zM390 1576v165h165v-165h-165zM786 1576v165h165v-165h-165z" />
<glyph unicode="&#x2c6;" horiz-adv-x="682" d="M25 1194l216 280h192l225 -280h-204l-110 170l-113 -170h-206z" />
<glyph unicode="&#x2dc;" horiz-adv-x="682" d="M7 1219q-1 104 57 166q57 62 146 62q62 0 169 -54q59 -30 94 -30q32 0 49 17.5t24 69.5h130q-3 -114 -57.5 -171t-138.5 -57q-63 0 -166 56q-67 36 -98 36q-34 0 -55 -24q-22 -24 -21 -71h-133z" />
<glyph unicode="&#x2000;" horiz-adv-x="925" />
<glyph unicode="&#x2001;" horiz-adv-x="1851" />
<glyph unicode="&#x2002;" horiz-adv-x="925" />
<glyph unicode="&#x2003;" horiz-adv-x="1851" />
<glyph unicode="&#x2004;" horiz-adv-x="617" />
<glyph unicode="&#x2005;" horiz-adv-x="462" />
<glyph unicode="&#x2006;" horiz-adv-x="308" />
<glyph unicode="&#x2007;" horiz-adv-x="308" />
<glyph unicode="&#x2008;" horiz-adv-x="231" />
<glyph unicode="&#x2009;" horiz-adv-x="370" />
<glyph unicode="&#x200a;" horiz-adv-x="102" />
<glyph unicode="&#x2010;" horiz-adv-x="818" d="M31 385v150h620v-150h-620z" />
<glyph unicode="&#x2011;" horiz-adv-x="818" d="M31 385v150h620v-150h-620z" />
<glyph unicode="&#x2012;" horiz-adv-x="818" d="M31 385v150h620v-150h-620z" />
<glyph unicode="&#x2013;" d="M-4 458v145h1139v-145h-1139z" />
<glyph unicode="&#x2014;" horiz-adv-x="1706" d="M0 459v143h1706v-143h-1706z" />
<glyph unicode="&#x2018;" horiz-adv-x="455" d="M128 1011v165q0 74 10 125t30.5 86.5t51.5 59.5t73 44l44 -70q-41 -16 -64.5 -44t-38.5 -82l-7 -75h94v-209h-193z" />
<glyph unicode="&#x2019;" horiz-adv-x="455" d="M108 1072q37 14 62.5 44.5t39.5 81.5l8 74h-94v209h193v-165q0 -75 -10 -126t-30.5 -86t-51.5 -58.5t-73 -44.5z" />
<glyph unicode="&#x201a;" horiz-adv-x="455" d="M109 -201q18 8 32.5 17.5t27 23.5t23 34.5t19.5 51.5l6 74h-92v209h192v-166q0 -71 -9 -120.5t-29 -85t-51 -60.5t-76 -47z" />
<glyph unicode="&#x201c;" horiz-adv-x="682" d="M83 1011v165q0 74 10 125t30.5 86.5t51.5 59.5t73 44l44 -70q-41 -16 -64.5 -44t-38.5 -82l-7 -75h94v-209h-193zM393 1011v165q0 74 10 125t30.5 86.5t51.5 59.5t73 44l44 -70q-41 -16 -64.5 -44t-38.5 -82l-7 -75h94v-209h-193z" />
<glyph unicode="&#x201d;" horiz-adv-x="682" d="M71 1072q37 14 62.5 44.5t39.5 81.5l8 74h-94v209h193v-165q0 -75 -10 -126t-30.5 -86t-51.5 -58.5t-73 -44.5zM381 1072q37 14 62.5 44.5t39.5 81.5l8 74h-94v209h193v-165q0 -75 -10 -126t-30.5 -86t-51.5 -58.5t-73 -44.5z" />
<glyph unicode="&#x201e;" horiz-adv-x="682" d="M71 -199q54 22 80.5 69.5t29.5 129.5h-94v209h193v-165q0 -134 -31 -192q-44 -82 -134 -122zM381 -199q54 22 80.5 69.5t29.5 129.5h-94v209h193v-165q0 -134 -31 -192q-44 -82 -134 -122z" />
<glyph unicode="&#x2022;" horiz-adv-x="717" d="M109 719q0 49 19.5 95t54 80.5t80.5 55.5t99 21q52 0 98 -20.5t80.5 -55t55 -80t20.5 -96.5q0 -52 -20 -98.5t-54.5 -81t-80.5 -54.5t-99 -20q-49 0 -94.5 20t-81 54.5t-56.5 80.5t-21 99z" />
<glyph unicode="&#x2026;" horiz-adv-x="2048" d="M239 0v205h205v-205h-205zM922 0v205h205v-205h-205zM1604 0v205h206v-205h-206z" />
<glyph unicode="&#x202f;" horiz-adv-x="370" />
<glyph unicode="&#x2039;" horiz-adv-x="682" d="M92 527l315 457h149l-265 -457l265 -455h-149z" />
<glyph unicode="&#x203a;" horiz-adv-x="682" d="M92 72l265 458l-265 454h149l304 -448l-304 -464h-149z" />
<glyph unicode="&#x205f;" horiz-adv-x="462" />
<glyph unicode="&#x20ac;" d="M0 532v131h105v128l-105 -1v133h116q13 114 65.5 207.5t130.5 162.5t176.5 112.5t175 53t123.5 9.5q59 0 142 -13.5t178 -65.5l-40 -182q-66 54 -139 76t-141 23q-11 0 -57 -1.5t-122 -30t-137 -78.5t-102 -119t-50 -154h622l-17 -131h-621q-1 -13 -1 -34v-41 q0 -21 0.5 -36.5t0.5 -17.5h604l-18 -132h-565q6 -91 46 -161.5t102 -119.5t139.5 -75.5t122 -28t52.5 -1.5q72 1 145.5 23t135.5 73v-202q-103 -43 -174 -50.5t-106 -7.5q-71 -1 -155.5 14t-175.5 60.5t-161.5 114.5t-115.5 161t-54 201h-125z" />
<glyph unicode="&#x2122;" horiz-adv-x="2048" d="M225 1345v121h666v-121h-266v-694h-136v694h-264zM982 651v815h200l206 -651l199 651h196v-815h-124v684l-210 -684h-123l-219 694v-694h-125z" />
<glyph unicode="&#x25fc;" horiz-adv-x="1055" d="M0 0v1055h1055v-1055h-1055z" />
</font>
</defs>
</svg>
